v

您的位置:VeryCD音乐演唱会

音乐资源事务区


Ferry Corsten -《Backstage》[DVDRip]

  • 状态: 精华资源
  • 摘要:
    发行时间2009年09月
    语言英语
  • 时间: 2011/04/30 01:41:24 发布 | 2011/04/30 13:51:50 更新
  • 分类: 音乐  演唱会 

zhang11veron

精华资源: 69

全部资源: 69

相关: 分享到新浪微博   转播到腾讯微博   分享到开心网   分享到人人   分享到QQ空间   订阅本资源RSS更新   美味书签  subtitle
该内容尚未提供权利证明,无法提供下载。
专辑中文名Backstage
歌手Ferry Corsten
资源格式DVDRip
发行时间2009年09月
地区荷兰
语言英语
简介

IPB Image

发行公司:Black Hole Recordings
音乐类型:Trance

专辑介绍:

Ferry Corsten是一个从荷兰的鹿特丹成长起来的“大牌”。05年他已经获得了DJ Mag票选第5位和美国BPM杂志第8位的殊荣。Ferry Corsten和DJ Tiesto,Armin Van Buuren俨然成为了荷兰Trance的三驾马车。 Ferry Corsten不仅仅满足于制作音乐,也尝试起了DJ,并发行了自己的新系列"Passport”。在05年首张《Kingdom Of The Netherlands》发行时令乐评和歌迷都为之惊艳,独特的曲目设置,娴熟的Mix水准,以及Ferry在03年之后就转变的硬朗的Progressive Trance风格,使这张混音专辑成为一张经典Trance唱片。 Ferry Corsten 现在准备以自己特有的音乐标签来发行自己的音乐。

这是一张现场专辑,曲目大多取自他08年的专辑Twice In A Blue Moon。

等不及的朋友可以先下这个听听

资源均来自网络,仅作试听之用,请在下载完24小时内删除,如果你喜欢,请购买正版,谢谢。

大家睡觉的时候供源。

视频信息:

引用
Format : Matroska
File size : 2.18 GiB
Duration : 1h 43mn
Overall bit rate : 3 008 Kbps
Encoded date : UTC 2009-10-04 23:53:02
Writing application : mkvmerge v2.9.7 ('Tenderness') built on Jul 1 2009 18:43:35
Writing library : libebml v0.7.7 + libmatroska v0.8.1
Video #1
ID : 1
Format : AVC
Format/Info : Advanced Video Codec
Format profile : Main@L3.0
Format settings, CABAC : Yes
Format settings, ReFrames : 5 frames
Codec ID : V_MPEG4/ISO/AVC
Duration : 1h 43mn
Bit rate : 2 558 Kbps
Width : 640 pixels
Height : 352 pixels
Display aspect ratio : 16:9
Frame rate : 25.000 fps
Color space : YUV
Chroma subsampling : 4:2:0
Bit depth : 8 bits
Scan type : Progressive
Bits/(Pixel*Frame) : 0.454
Stream size : 1.82 GiB (83%)
Writing library : x264 core 68 r1183M f21daff
Language : English
Audio #2
ID : 2
Format : AC-3
Format/Info : Audio Coding 3
Mode extension : CM (complete main)
Codec ID : A_AC3
Duration : 1h 43mn
Bit rate mode : Constant
Bit rate : 448 Kbps
Channel(s) : 6 channels
Channel positions : Front: L C R, Side: L R, LFE
Sampling rate : 48.0 KHz
Bit depth : 16 bits
Stream size : 333 MiB (15%)

百度云分享地址点此
如果没源了可以给发邮件到zhang11veron@qq.com



专辑曲目

Ferry Corsten Solo:
01. Ferry Corsten - Visions Of Blue
02. Ferry Corsten - Twice In A Blue Moon
03. Stoneface & Terminal - Blueprint (Club Mix)

Ferry Corsten & Lange:
04. Deadmau5 - Clockwork (Cosmic Gate Remix)

Ferry Corsten & Sander van Doorn:
05. Ferry Corsten - Radio Crash
06. Ferry Corsten - Shanti

Ferry Corsten Solo:
07. Ferry Corsten - Beautiful
08. Ferry Corsten feat. Betsie Larkin - Made Of Love
09. Ferry Corsten feat. Simon Le Bon - Fire (Flashover Mix)

Ferry Corsten & Markus Schossow:
10. Ferry Corsten - Shelter Me
11. Ferry Corsten - Life

Ferry Corsten Solo:
12. Ferry Corsten feat. Betsie Larkin - Feel You
13. Mr Sam feat. clAud9 - Cygnes
14. Ferry Corsten feat. Maria Nayler - We Belong

Ferry Corsten & Eddie Halliwell:
15. Embrace - Embrace (Ferry Fix)
16. Airborne Angel - Origo (Original Rework)

Ferry Corsten & Solarstone:
17. Angel Ace - 776 Miles

Ferry Corsten Solo:
18. Eon - Pocket Damage

正在读取……

这里是其它用户补充的资源(我也要补充):

暂无补充资源
正在加载,请稍等...

点击查看所有12网友评论

 

(?) [公告]留口水、评论相关规则 | [活动]每日签到 轻松领取电驴经验

    小贴士:
  1. 类似“顶”、“沙发”之类没有营养的文字,对勤劳贡献的楼主来说是令人沮丧的反馈信息。
  2. 提问之前请再仔细看一遍楼主的说明,或许是您遗漏了。
  3. 勿催片。请相信驴友们对分享是富有激情的,如果确有更新版本,您一定能搜索到。
  4. 请勿到处挖坑绊人、招贴广告。既占空间让人厌烦,又没人会搭理,于人于己都无利。
  5. 如果您发现自己的评论不见了,请参考以上4条。