v

您的位置:VeryCD动漫剧场动画

动漫资源事务区


《蜡笔小新剧场版:风起云涌的丛林冒险》(Crayon Shin-chan Movie 8)[电驴首发台湾版国语][800x452][RV40_COOK][CHT][DVDRip-RMVB]

  • 状态: 精华资源
  • 摘要:
    发行时间2000年4月22日
    语言普通话
  • 时间: 2011/04/23 11:16:06 发布 | 2011/04/25 13:37:32 更新
  • 分类: 动漫  剧场动画 

DonsGT

精华资源: 11

全部资源: 11

相关: 分享到新浪微博   转播到腾讯微博   分享到开心网   分享到人人   分享到QQ空间   订阅本资源RSS更新   美味书签  subtitle
该内容尚未提供权利证明,无法提供下载。
中文名蜡笔小新剧场版:风起云涌的丛林冒险
英文名Crayon Shin-chan Movie 8
别名呼风唤雨的森林冒险
版本[电驴首发台湾版国语][800x452][RV40_COOK][CHT][DVDRip-RMVB]
发行时间2000年4月22日
导演原恵一
地区日本
语言普通话
简介

IPB Image

【剧情简介】

  小新跟妈妈还有风间,妮妮,正男,阿呆一起报名动感超人周年纪念南海之旅,就在动感超人电影的船上首映会上,突然出现了一群粗暴的猴子将大人们都掳走了。春日部防卫队为了救出大人们而出动,小新一行人冒险渡海到南海上的一座荒岛希望可以查出发生了什么事,但本应在船上小葵和小白竟突然出现,小新还发现另一辆古怪的船……

【影片信息】

引用
General
Complete name : Crayon_Shin-chan_FILM2000_风起云涌的丛林冒险.rmvb
Format : RealMedia
File size : 390 MiB
Duration : 1h 28mn
Overall bit rate : 605 Kbps
Performer : DonsGT

Video
ID : 1
Format : RealVideo 4
Codec ID : RV40
Codec ID/Info : Based on AVC (H.264), Real Player 9
Duration : 1h 28mn
Bit rate : 561 Kbps
Width : 800 pixels
Height : 452 pixels
Display aspect ratio : 16:9
Frame rate : 23.976 fps
Bits/(Pixel*Frame) : 0.065
Stream size : 353 MiB (90%)

Audio
ID : 0
Format : Cooker
Codec ID : cook
Codec ID/Info : Based on G.722.1, Real Player 6
Duration : 1h 28mn
Bit rate : 44.1 Kbps
Channel(s) : 2 channels
Sampling rate : 44.1 KHz
Bit depth : 16 bits
Stream size : 27.8 MiB (7%)


【影片截图】

IPB Image

IPB Image

正在读取……

这里是其它用户补充的资源(我也要补充):

暂无补充资源
正在加载,请稍等...

点击查看所有16网友评论

 

(?) [公告]留口水、评论相关规则 | [活动]每日签到 轻松领取电驴经验

    小贴士:
  1. 类似“顶”、“沙发”之类没有营养的文字,对勤劳贡献的楼主来说是令人沮丧的反馈信息。
  2. 提问之前请再仔细看一遍楼主的说明,或许是您遗漏了。
  3. 勿催片。请相信驴友们对分享是富有激情的,如果确有更新版本,您一定能搜索到。
  4. 请勿到处挖坑绊人、招贴广告。既占空间让人厌烦,又没人会搭理,于人于己都无利。
  5. 如果您发现自己的评论不见了,请参考以上4条。