v

您的位置:VeryCD动漫剧场动画

动漫资源事务区


《蜡笔小新剧场版:电击!猪蹄大作战》(Crayon Shin-chan Movie 6)[台湾版国语][RMVB]

  • 状态: 精华资源
  • 摘要:
    发行时间1998年04月18日
    语言普通话
  • 时间: 2011/04/19 04:57:57 发布 | 2011/04/21 14:43:33 更新
  • 分类: 动漫  剧场动画 

DonsGT

精华资源: 11

全部资源: 11

相关: 分享到新浪微博   转播到腾讯微博   分享到开心网   分享到人人   分享到QQ空间   订阅本资源RSS更新   美味书签  subtitle
该内容尚未提供权利证明,无法提供下载。
中文名蜡笔小新剧场版:电击!猪蹄大作战
英文名Crayon Shin-chan Movie 6
别名蜡笔小新剧场版之肥嘟嘟左卫门
资源格式RMVB
版本[台湾版国语]
发行时间1998年04月18日
地区日本
语言普通话
简介

IPB Image

此次上传的是完整国语版,很多“东森幼幼”台的和谐剧情是错误的,看完了这个版本,所有的疑惑都将迎刃而解。

视频文件介绍:
Crayon_Shin-chan_FILM1998[EBC][tudou]_电击!猪蹄大作战.wmv
早期发布的资源,是我用“东森幼幼”和“东森电影”片源合成的国语完整版,体积小,画质也能达到320+,属于DIY版
IPB Image

Crayon_Shin-chan_FILM1998_电击!猪蹄大作战.rmvb
后期发布的资源,纯属珍藏用,字幕为台湾繁体DVDrip拉取,画质相对清晰许多


【剧情简介】
  秘密的SML组织为了维护世界和平,阻止邪恶的黑道组织-猪蹄组征服世界的诡计,派特工美色潜入邪恶组织,偷取执行计划的核心元件。在逃亡过程中,美色无意间上了小新一行人搭乘的游船,使得小新也被卷入正邪的对抗战中,还被带往邪恶组织。原来邪恶组织要进行的计划是,让大袋博士开发出来的新型电子生命体:不理不理左卫门入侵全世界的电脑,进而征服世界。没想到这个新型的电子生命体的原创者居然是小新…

【影片信息】

引用
General
Complete name : Crayon_Shin-chan_FILM1998_电击!猪蹄大作战.rmvb
Format : RealMedia
File size : 827 MiB
Duration : 1h 39mn
Overall bit rate : 1 142 Kbps
Performer : DonsGT

Video
ID : 0
Format : RealVideo 4
Codec ID : RV40
Codec ID/Info : Based on AVC (H.264), Real Player 9
Duration : 1h 39mn
Bit rate : 1 045 Kbps
Width : 712 pixels
Height : 464 pixels
Display aspect ratio : 3:2
Frame rate : 23.976 fps
Bits/(Pixel*Frame) : 0.132
Stream size : 746 MiB (90%)

Audio
ID : 1
Format : Cooker
Codec ID : cook
Codec ID/Info : Based on G.722.1, Real Player 6
Duration : 1h 39mn
Bit rate : 96.5 Kbps
Channel(s) : 2 channels
Sampling rate : 44.1 KHz
Bit depth : 16 bits
Stream size : 68.9 MiB (8%)


【影片截图】
IPB Image
IPB Image
IPB Image

正在读取……

这里是其它用户补充的资源(我也要补充):

DonsGT 2011/04/21 11:47:28 补充
我可以上传清晰的国语版本了

该内容尚未提供权利证明,无法提供下载。
正在加载,请稍等...

点击查看所有30网友评论

 

(?) [公告]留口水、评论相关规则 | [活动]每日签到 轻松领取电驴经验

    小贴士:
  1. 类似“顶”、“沙发”之类没有营养的文字,对勤劳贡献的楼主来说是令人沮丧的反馈信息。
  2. 提问之前请再仔细看一遍楼主的说明,或许是您遗漏了。
  3. 勿催片。请相信驴友们对分享是富有激情的,如果确有更新版本,您一定能搜索到。
  4. 请勿到处挖坑绊人、招贴广告。既占空间让人厌烦,又没人会搭理,于人于己都无利。
  5. 如果您发现自己的评论不见了,请参考以上4条。