v

您的位置:VeryCD动漫剧场动画

动漫资源事务区


《蜡笔小新剧场版:黑暗珠珠大追击》(Crayon Shin-chan Movie 5)[台湾版国语][RMVB]

  • 状态: 精华资源
  • 摘要:
    发行时间1997年4月19日
    语言普通话
  • 时间: 2011/04/17 14:39:27 发布 | 2011/04/18 03:03:11 更新
  • 分类: 动漫  剧场动画 

DonsGT

精华资源: 11

全部资源: 11

相关: 分享到新浪微博   转播到腾讯微博   分享到开心网   分享到人人   分享到QQ空间   订阅本资源RSS更新   美味书签  subtitle
该内容尚未提供权利证明,无法提供下载。
中文名蜡笔小新剧场版:黑暗珠珠大追击
英文名Crayon Shin-chan Movie 5
别名クレヨンしんちゃん 暗黒タマタマ大追迹
资源格式RMVB
版本[台湾版国语]
发行时间1997年4月19日
地区日本
语言普通话
简介

IPB Image
【剧情简介】
  小新在河边无意间捡到一颗弹珠,看它很闪亮于是就捡回家里。没想到却被小葵吞进肚子里。这下糟了,原来这颗弹珠是珠由良族与珠黄泉族在争夺的魔人贾克的珠珠,珠黄泉族的首领玉王想要利用贾克的魔力征服世界。就这样,小新一家人卷入两族人的争夺战中,小葵被玉王绑架走了,大家为了保护小葵,费尽心力…最后平安的救出小葵,小新却在无意间,将两颗珠珠放进封印贾克的人俑里,魔人贾克被释放出来了…

【影片信息】

引用
General
Complete name : F:\影视\蜡笔小新\Crayon_Shin-chan_FILM\Crayon_Shin-chan_FILM1997_黑暗珠珠大追击.rmvb
Format : RealMedia
File size : 423 MiB
Duration : 1h 37mn
Overall bit rate : 596 Kbps
Performer : DonsGT

Video
ID : 1
Format : RealVideo 4
Codec ID : RV40
Codec ID/Info : Based on AVC (H.264), Real Player 9
Duration : 1h 37mn
Bit rate : 532 Kbps
Width : 800 pixels
Height : 452 pixels
Display aspect ratio : 16:9
Frame rate : 23.976 fps
Bits/(Pixel*Frame) : 0.061
Stream size : 370 MiB (88%)

Audio
ID : 0
Format : Cooker
Codec ID : cook
Codec ID/Info : Based on G.722.1, Real Player 6
Duration : 1h 37mn
Bit rate : 64.1 Kbps
Channel(s) : 2 channels
Sampling rate : 44.1 KHz
Bit depth : 16 bits
Stream size : 44.6 MiB (11%)



【影片截图】

IPB Image

IPB Image

IPB Image

正在读取……

这里是其它用户补充的资源(我也要补充):

暂无补充资源
正在加载,请稍等...

点击查看所有9网友评论

 

(?) [公告]留口水、评论相关规则 | [活动]每日签到 轻松领取电驴经验

    小贴士:
  1. 类似“顶”、“沙发”之类没有营养的文字,对勤劳贡献的楼主来说是令人沮丧的反馈信息。
  2. 提问之前请再仔细看一遍楼主的说明,或许是您遗漏了。
  3. 勿催片。请相信驴友们对分享是富有激情的,如果确有更新版本,您一定能搜索到。
  4. 请勿到处挖坑绊人、招贴广告。既占空间让人厌烦,又没人会搭理,于人于己都无利。
  5. 如果您发现自己的评论不见了,请参考以上4条。