v

您的位置:VeryCD动漫剧场动画

动漫资源事务区


《蜡笔小新剧场版:搞怪游乐园大冒险》(Crayon Shin-chan Movie 4)[台湾版国语][RMVB]

  • 状态: 精华资源
  • 摘要:
    发行时间1996年04月13日
    语言普通话
  • 时间: 2011/04/16 10:51:21 发布 | 2011/04/17 00:27:23 更新
  • 分类: 动漫  剧场动画 

DonsGT

精华资源: 11

全部资源: 11

相关: 分享到新浪微博   转播到腾讯微博   分享到开心网   分享到人人   分享到QQ空间   订阅本资源RSS更新   美味书签  subtitle
该内容尚未提供权利证明,无法提供下载。
中文名蜡笔小新剧场版:搞怪游乐园大冒险
英文名Crayon Shin-chan Movie 4
别名クレヨンしんちゃん ヘンダーランドの大冒険
资源格式RMVB
版本[台湾版国语]
发行时间1996年04月13日
地区日本
语言普通话
简介

IPB Image
NOTICE:大陆版命名"奇异乐园大冒险" 台湾版命名"搞怪游乐园大冒险"
【内容简介】
  向日葵幼稚园带着所有的幼稚园小朋友到新开幕的奇异乐园玩,只是小新居然在后来没跟着大家走,独自走进了尚未对外开张的马戏团,在这里遇到了童话故事中的木偶多佩玛,邪恶的同性恋双魔,还有他的手下。坏人们为了争取超级无敌厉害的扑克牌,展开了一场现实与魔幻世界的追逐,最后连小新的爸爸妈妈都被同性恋双魔的手下抓走了,为了救回爸爸妈妈,小新只有勇敢的再回到奇异乐园…

引用
General
Complete name :Crayon_Shin-chan_FILM1996_搞怪游乐园大冒险.rmvb
Format : RealMedia
File size : 430 MiB
Duration : 1h 37mn
Overall bit rate : 606 Kbps
Performer : DonsGT

Video
ID : 1
Format : RealVideo 4
Codec ID : RV40
Codec ID/Info : Based on AVC (H.264), Real Player 9
Duration : 1h 37mn
Bit rate : 542 Kbps
Width : 800 pixels
Height : 452 pixels
Display aspect ratio : 16:9
Frame rate : 23.976 fps
Bits/(Pixel*Frame) : 0.063
Stream size : 377 MiB (88%)

Audio
ID : 0
Format : Cooker
Codec ID : cook
Codec ID/Info : Based on G.722.1, Real Player 6
Duration : 1h 37mn
Bit rate : 64.1 Kbps
Channel(s) : 2 channels
Sampling rate : 44.1 KHz
Bit depth : 16 bits
Stream size : 44.6 MiB (10%)



【影片截图】

IPB Image

IPB Image

IPB Image

正在读取……

这里是其它用户补充的资源(我也要补充):

暂无补充资源
正在加载,请稍等...

点击查看所有9网友评论

 

(?) [公告]留口水、评论相关规则 | [活动]每日签到 轻松领取电驴经验

    小贴士:
  1. 类似“顶”、“沙发”之类没有营养的文字,对勤劳贡献的楼主来说是令人沮丧的反馈信息。
  2. 提问之前请再仔细看一遍楼主的说明,或许是您遗漏了。
  3. 勿催片。请相信驴友们对分享是富有激情的,如果确有更新版本,您一定能搜索到。
  4. 请勿到处挖坑绊人、招贴广告。既占空间让人厌烦,又没人会搭理,于人于己都无利。
  5. 如果您发现自己的评论不见了,请参考以上4条。