v

您的位置:VeryCD动漫剧场动画

动漫资源事务区


《蜡笔小新剧场版:动感超人VS高衩魔王》(Crayon Shin-chan Movie 1)[日/台/粤配][RMVB][MKV]

  • 状态: 精华资源
  • 摘要:
    发行时间1993年07月24日
  • 时间: 2011/04/15 16:47:39 发布 | 2011/05/17 17:01:55 更新
  • 分类: 动漫  剧场动画 

DonsGT

精华资源: 11

全部资源: 11

相关: 分享到新浪微博   转播到腾讯微博   分享到开心网   分享到人人   分享到QQ空间   订阅本资源RSS更新   美味书签  subtitle
该内容尚未提供权利证明,无法提供下载。
中文名蜡笔小新剧场版:动感超人VS高衩魔王
英文名Crayon Shin-chan Movie 1
别名动感超人大战泳装魔王
版本[日/台/粤配][RMVB][MKV]
发行时间1993年07月24日
地区日本
简介

IPB Image

【剧情介绍】
  动感超人的动感石头(超级石)被高衩魔王抢走了,少了那个动感超人和咪咪就不能回到原来的世界,於是他们决定指派小新一家人成为动感战士,不知情的小新一家就这么带著动感超人卡片前往另一个世界,这时在魔王和他的党羽肆虐下,另一个世界的人纷纷变成开高叉泳装人,小新听了咪咪的双胞胎姊姊莉莉和博士的说明后,决定协助动感超人克服危机,遂和小白骑著博士特制的三轮车去找魔王,双方展开一场大战,他和动感超人能打败魔王挽救地球的和平吗…

注:大陆版翻译“动感超人大战泳装魔王”
台湾版翻译“动感超人VS高衩魔王”


引用
General
Complete name :Crayon_Shin-chan_FILM1993_动感超人VS高衩魔王.rmvb
Format : RealMedia
File size : 436 MiB
Duration : 1h 32mn
Overall bit rate : 639 Kbps
Performer : DonsGT

Video
ID : 1
Format : RealVideo 4
Codec ID : RV40
Codec ID/Info : Based on AVC (H.264), Real Player 9
Duration : 1h 32mn
Bit rate : 575 Kbps
Width : 800 pixels
Height : 452 pixels
Display aspect ratio : 16:9
Frame rate : 23.976 fps
Bits/(Pixel*Frame) : 0.066
Stream size : 382 MiB (88%)

Audio
ID : 0
Format : Cooker
Codec ID : cook
Codec ID/Info : Based on G.722.1, Real Player 6
Duration : 1h 32mn
Bit rate : 64.1 Kbps
Channel(s) : 2 channels
Sampling rate : 44.1 KHz
Bit depth : 16 bits
Stream size : 42.6 MiB (10%)

引用
General
Unique ID : 175496324178709104700241182711994509306 (0x84075CD279255196A5C0FA476DD5E7FA)
Complete name : Crayon_Shin-chan_FILM1993_动感超人VS高衩魔王[多语言版].mkv
Format : Matroska
File size : 1.55 GiB
Duration : 1h 33mn
Overall bit rate : 2 376 Kbps
Movie name : クレヨンしんちゃん アクション仮面VSハイグレ魔王
Encoded date : UTC 2010-08-07 12:13:40
Writing application : mkvmerge v2.9.7 ('Tenderness') built on Jul 1 2009 18:43:35
Writing library : libebml v0.7.7 + libmatroska v0.8.1

Video
ID : 1
Format : AVC
Format/Info : Advanced Video Codec
Format profile : High@L3.0
Format settings, CABAC : Yes
Format settings, ReFrames : 4 frames
Codec ID : V_MPEG4/ISO/AVC
Duration : 1h 33mn
Bit rate : 1 600 Kbps
Width : 688 pixels
Height : 480 pixels
Display aspect ratio : 16:9
Frame rate : 23.976 fps
Standard : NTSC
Color space : YUV
Chroma subsampling : 4:2:0
Bit depth : 8 bits
Scan type : Progressive
Bits/(Pixel*Frame) : 0.202
Stream size : 1.02 GiB (66%)
Writing library : x264 core 100 r1659 57b2e56
Encoding settings : cabac=1 / ref=4 / deblock=1:0:0 / analyse=0x3:0x133 / me=tesa / subme=10 / psy=1 / psy_rd=0.60:0.00 / mixed_ref=1 / me_range=32 / chroma_me=1 / trellis=2 / 8x8dct=1 / cqm=0 / deadzone=21,11 / fast_pskip=0 / chroma_qp_offset=-2 / threads=6 / sliced_threads=0 / nr=0 / decimate=0 / interlaced=0 / constrained_intra=0 / bframes=8 / b_pyramid=0 / b_adapt=2 / b_bias=0 / direct=3 / weightb=1 / open_gop=0 / weightp=2 / keyint=300 / keyint_min=1 / scenecut=40 / intra_refresh=0 / rc_lookahead=96 / rc=2pass / mbtree=1 / bitrate=1600 / ratetol=1.0 / qcomp=0.60 / qpmin=1 / qpmax=51 / qpstep=3 / cplxblur=20.0 / qblur=0.5 / ip_ratio=1.40 / aq=2:1.00
Language : Japanese
Color primaries : BT.470-6 System B, BT.470-6 System G, BT.601-6 625, BT.1358 625, BT.1700 625 PAL, BT.1700 625 SECAM
Transfer characteristics : BT.470-6 System B, BT.470-6 System G
Matrix coefficients : BT.470-6 System B, BT.470-6 System G, BT.601-6 625, BT.1358 625, BT.1700 625 PAL, BT.1700 625 SECAM, IEC 61966-2-4 601

Audio #1
ID : 2
Format : AC-3
Format/Info : Audio Coding 3
Format profile : Dolby Digital
Mode extension : CM (complete main)
Codec ID : A_AC3
Duration : 1h 33mn
Bit rate mode : Constant
Bit rate : 448 Kbps
Channel(s) : 2 channels
Channel positions : Front: L R
Sampling rate : 48.0 KHz
Bit depth : 16 bits
Compression mode : Lossy
Stream size : 298 MiB (19%)
Title : 日本语
Language : Japanese

Audio #2
ID : 3
Format : AC-3
Format/Info : Audio Coding 3
Mode extension : CM (complete main)
Codec ID : A_AC3
Duration : 1h 33mn
Bit rate mode : Constant
Bit rate : 192 Kbps
Channel(s) : 2 channels
Channel positions : Front: L R
Sampling rate : 48.0 KHz
Bit depth : 16 bits
Compression mode : Lossy
Stream size : 128 MiB (8%)
Title : 汉语
Language : Chinese

Audio #3
ID : 4
Format : AC-3
Format/Info : Audio Coding 3
Mode extension : CM (complete main)
Codec ID : A_AC3
Duration : 1h 33mn
Bit rate mode : Constant
Bit rate : 128 Kbps
Channel(s) : 2 channels
Channel positions : Front: L R
Sampling rate : 48.0 KHz
Bit depth : 16 bits
Compression mode : Lossy
Stream size : 85.3 MiB (5%)
Title : 粤语
Language : Chinese

Text #1
ID : 5
Format : VobSub
Muxing mode : zlib
Codec ID : S_VOBSUB
Codec ID/Info : The same subtitle format used on DVDs
Language : Japanese

Text #2
ID : 6
Format : VobSub
Muxing mode : zlib
Codec ID : S_VOBSUB
Codec ID/Info : The same subtitle format used on DVDs
Language : Chinese

Menu
00:00:00.000 : ja:01 撮影现场の事故!?
00:04:45.952 : ja:02 オープニング
00:05:54.854 : ja:03 アクション仮面カード
00:10:28.962 : ja:04 しんのすけvsみさえ
00:13:59.672 : ja:05 アクション仮面がヘン!?
00:16:50.877 : ja:06 野原家の夜
00:21:18.277 : ja:07 ひまわり体操
00:24:17.823 : ja:08 幼稚园终业式
00:27:56.008 : ja:09 郷とミミ子
00:28:37.716 : ja:10 みさえとお买い物
00:31:08.066 : ja:11 駄菓子屋でチョコビ
00:33:56.167 : ja:12 カードNo.99
00:35:55.787 : ja:13 野原一家海へ行く
00:39:39.377 : ja:14 アトラクションランド
00:42:54.739 : ja:15 时空移动マシン
00:45:54.085 : ja:16 异次元世界の野原家
00:50:15.045 : ja:17 アクション・ストーンの真相
00:55:34.331 : ja:18 Tバック男爵现る
01:03:13.623 : ja:19 北春日部秘密研究所
01:06:17.140 : ja:20 スーパー三轮车
01:08:40.650 : ja:21 逃げろ!しんのすけ
01:13:32.074 : ja:22 対决!Tバック男爵
01:16:32.254 : ja:23 アクション仮面参上!
01:20:36.498 : ja:24 登りっこ
01:21:57.412 : ja:25 アクション仮面vsハイクレ魔王
01:28:33.642 : ja:26 帰宅~エンディング

【影片截图】
IPB Image

IPB Image

IPB Image

需要补源请M我

正在读取……

这里是其它用户补充的资源(我也要补充):

暂无补充资源
正在加载,请稍等...

点击查看所有15网友评论

 

(?) [公告]留口水、评论相关规则 | [活动]每日签到 轻松领取电驴经验

    小贴士:
  1. 类似“顶”、“沙发”之类没有营养的文字,对勤劳贡献的楼主来说是令人沮丧的反馈信息。
  2. 提问之前请再仔细看一遍楼主的说明,或许是您遗漏了。
  3. 勿催片。请相信驴友们对分享是富有激情的,如果确有更新版本,您一定能搜索到。
  4. 请勿到处挖坑绊人、招贴广告。既占空间让人厌烦,又没人会搭理,于人于己都无利。
  5. 如果您发现自己的评论不见了,请参考以上4条。