v

您的位置:VeryCD动漫剧场动画

动漫资源事务区


《蜡笔小新剧场版:不理不理王国的秘宝》(Crayon Shin-chan Movie 2)[台湾版国语][RMVB]

  • 状态: 精华资源
  • 摘要:
    发行时间1994年
    语言普通话
  • 时间: 2011/04/15 01:33:02 发布 | 2011/04/15 07:22:27 更新
  • 分类: 动漫  剧场动画 

DonsGT

精华资源: 11

全部资源: 11

相关: 分享到新浪微博   转播到腾讯微博   分享到开心网   分享到人人   分享到QQ空间   订阅本资源RSS更新   美味书签  subtitle
该内容尚未提供权利证明,无法提供下载。
中文名蜡笔小新剧场版:不理不理王国的秘宝
英文名Crayon Shin-chan Movie 2
别名蜡笔小新第二部剧场版
资源格式RMVB
版本[台湾版国语]
发行时间1994年
地区日本
语言普通话
简介

IPB Image

注:大陆翻译是“布里布里王国的宝藏”,而台湾翻译成“不理不理王国的秘宝”

【内容简介】
  小新和妈妈上街买菜意外抽中了头奖,获得免费招待全家前往遥远的不理不理王国,没想到一家人高兴地上了飞机后,却出现神秘组织白蛇帮派出的人妖意图绑架小新,小新和爸妈急忙跳伞降落在丛林中,在猴子帮助才逃过一劫,并在火车上认识了皇室亲卫官美女露露,这才得知长相酷似小新的王子也遭白蛇帮绑架,这时白蛇帮的人追来抢走了小新,原来白蛇帮的老大阿那康达和手下哈布,为了夺取不理不理王国传说中的宝藏,必须靠王子和小新才能打开宫殿之门,而那个宝藏竟是瓶中拥有无穷法力的大魔神,小新能阻止他们的阴谋吗…

引用
General
Complete name : Crayon_Shin-chan_FILM1994_不理不理王国的秘宝.rmvb
Format : RealMedia
File size : 407 MiB
Duration : 1h 33mn
Overall bit rate : 598 Kbps
Performer : DonsGT

Video
ID : 1
Format : RealVideo 4
Codec ID : RV40
Codec ID/Info : Based on AVC (H.264), Real Player 9
Duration : 1h 33mn
Bit rate : 534 Kbps
Width : 800 pixels
Height : 452 pixels
Display aspect ratio : 16:9
Frame rate : 23.976 fps
Bits/(Pixel*Frame) : 0.062
Stream size : 357 MiB (88%)

Audio
ID : 0
Format : Cooker
Codec ID : cook
Codec ID/Info : Based on G.722.1, Real Player 6
Duration : 1h 33mn
Bit rate : 64.1 Kbps
Channel(s) : 2 channels
Sampling rate : 44.1 KHz
Bit depth : 16 bits
Stream size : 42.9 MiB (11%)



【影片截图】
IPB Image

IPB Image

IPB Image


需要续源的请发信息给我

正在读取……

这里是其它用户补充的资源(我也要补充):

暂无补充资源
正在加载,请稍等...

点击查看所有12网友评论

 

(?) [公告]留口水、评论相关规则 | [活动]每日签到 轻松领取电驴经验

    小贴士:
  1. 类似“顶”、“沙发”之类没有营养的文字,对勤劳贡献的楼主来说是令人沮丧的反馈信息。
  2. 提问之前请再仔细看一遍楼主的说明,或许是您遗漏了。
  3. 勿催片。请相信驴友们对分享是富有激情的,如果确有更新版本,您一定能搜索到。
  4. 请勿到处挖坑绊人、招贴广告。既占空间让人厌烦,又没人会搭理,于人于己都无利。
  5. 如果您发现自己的评论不见了,请参考以上4条。