v

您的位置:VeryCD动漫剧场动画

动漫资源事务区


《蜡笔小新剧场版:云黑斋的野心》(Crayon Shin-chan Movie 3)[台湾版国语][RMVB]

  • 状态: 精华资源
  • 摘要:
    发行时间1995年04月15日
    语言普通话
  • 时间: 2011/04/14 06:54:16 发布 | 2011/04/15 00:31:21 更新
  • 分类: 动漫  剧场动画 

DonsGT

精华资源: 11

全部资源: 11

相关: 分享到新浪微博   转播到腾讯微博   分享到开心网   分享到人人   分享到QQ空间   订阅本资源RSS更新   美味书签  subtitle
该内容尚未提供权利证明,无法提供下载。
中文名蜡笔小新剧场版:云黑斋的野心
英文名Crayon Shin-chan Movie 3
别名蜡笔小新第三部剧场版
资源格式RMVB
版本[台湾版国语]
发行时间1995年04月15日
导演SHIN-EI动画
地区日本
语言普通话
简介

IPB Image
【剧情简介】
  未来人歇鲁跑到日本的战国时代改变了历史,时空巡逻队铃可发现了异状,正预备前往,没想到在时光隧道中遭受到攻击,不小心掉进二十世纪的小新家。铃可藉由小白向野原一家求救,於是野原一家踏上时光之旅回到战国时代。遇见了吹雪丸的他们,与他一同前往云黑城,打倒化身为云黑斋改变历史的坏蛋歇鲁,没想到的是歇鲁居然躲过攻击,还逃到了二十世纪。原以为可以回到家乡的野原一家,回到二十世纪后,发现时代已经被改变了,又是歇鲁搞的鬼……

引用
General
Complete name : Crayon_Shin-chan_FILM1995_云黑斋的野心.rmvb
Format : RealMedia
File size : 418 MiB
Duration : 1h 36mn
Overall bit rate : 598 Kbps
Performer : DonsGT

Video
ID : 1
Format : RealVideo 4
Codec ID : RV40
Codec ID/Info : Based on AVC (H.264), Real Player 9
Duration : 1h 36mn
Bit rate : 533 Kbps
Width : 800 pixels
Height : 452 pixels
Display aspect ratio : 16:9
Frame rate : 23.976 fps
Bits/(Pixel*Frame) : 0.062
Stream size : 367 MiB (88%)

Audio
ID : 0
Format : Cooker
Codec ID : cook
Codec ID/Info : Based on G.722.1, Real Player 6
Duration : 1h 36mn
Bit rate : 64.1 Kbps
Channel(s) : 2 channels
Sampling rate : 44.1 KHz
Bit depth : 16 bits
Stream size : 44.1 MiB (11%)



【影片截图】

IPB Image

IPB Image

IPB Image

需要续源的请发信息给我

正在读取……

这里是其它用户补充的资源(我也要补充):

暂无补充资源
正在加载,请稍等...

点击查看所有13网友评论

 

(?) [公告]留口水、评论相关规则 | [活动]每日签到 轻松领取电驴经验

    小贴士:
  1. 类似“顶”、“沙发”之类没有营养的文字,对勤劳贡献的楼主来说是令人沮丧的反馈信息。
  2. 提问之前请再仔细看一遍楼主的说明,或许是您遗漏了。
  3. 勿催片。请相信驴友们对分享是富有激情的,如果确有更新版本,您一定能搜索到。
  4. 请勿到处挖坑绊人、招贴广告。既占空间让人厌烦,又没人会搭理,于人于己都无利。
  5. 如果您发现自己的评论不见了,请参考以上4条。