v

您的位置:VeryCD动漫剧场动画

动漫资源事务区


《幸福是一条温暖的毛毯》(Peanuts: Happiness is A Warm Blanket)[BDRip]

  • 状态: 精华资源
  • 摘要:
    发行时间2010年
    语言英语
  • 时间: 2011/04/06 11:26:23 发布 | 2011/04/07 12:53:56 更新
  • 分类: 动漫  剧场动画 

life_is_good

精华资源: 6571

全部资源: 7301

相关: 分享到新浪微博   转播到腾讯微博   分享到开心网   分享到人人   分享到QQ空间   订阅本资源RSS更新   美味书签  subtitle
该内容尚未提供权利证明,无法提供下载。
中文名幸福是一条温暖的毛毯
英文名Peanuts: Happiness is A Warm Blanket
资源格式BDRip
发行时间2010年
地区美国
语言英语
简介

IPB Image

【首播时间】 2010年
【字幕制作】 暂无


【内容介绍】

莱纳斯得知祖母会来拜访并拿走蓝色毛毯。露西和朋友们试图帮助莱纳斯面对没有毛毯的日子。露西尝试精神治疗法,查理布朗则希望另辟蹊径,减少莱纳斯的痛苦。(文/life_is_good@YDY)

Linus learns his Grandma is coming to visit and plans to rid him of his blue security blanket. As her visit draws closer Lucy and the rest of the Peanuts gang try to help Linus learn to cope without his blanket. Lucy attempts to use her psychiatric service and good old Charlie Brown tries to help in his own way but can't stand to see his best friend Linus suffer. While all this is going on our favorite beagle has motives to obtain the blanket for himself. In the end Linus realizes that everyone has their own "security blanket" and isn't a little security is a good thing?

【STAFF】

导  演 Andrew Beall/Frank Molieri

【CAST】

Trenton Rogers ... Charlie Brown / Schroeder (voice)
Shane Baumel
Blesst Bowden
Ciara Bravo
Austin Lux
Amanda Pace
Andy Pessoa
Grace Rolek

代码
Video
ID                             : 0
Format                         : MPEG-4 Visual
Format profile                 : Advanced Simple@L5
Format settings, BVOP            : Yes
Format settings, QPel            : No
Format settings, GMC           : No warppoints
Format settings, Matrix          : Default (H.263)
Codec ID                       : XVID
Codec ID/Hint                    : XviD
Duration                       : 45mn 40s
Bit rate                       : 1 398 Kbps
Width                            : 640 pixels
Height                         : 352 pixels
Display aspect ratio           : 16:9
Frame rate                     : 29.970 fps
Color space                      : YUV
Chroma subsampling             : 4:2:0
Bit depth                        : 8 bits
Scan type                        : Progressive
Bits/(Pixel*Frame)             : 0.207
Stream size                      : 457 MiB (78%)
Writing library                  : XviD 1.2.1 (UTC 2008-12-04)

Audio
ID                             : 1
Format                         : AC-3
Format/Info                      : Audio Coding 3
Mode extension                 : CM (complete main)
Codec ID                       : 2000
Duration                       : 45mn 39s
Bit rate mode                    : Constant
Bit rate                       : 384 Kbps
Channel(s)                     : 6 channels
Channel positions                : Front: L C R, Side: L R, LFE
Sampling rate                    : 48.0 KHz
Bit depth                        : 16 bits
Stream size                      : 125 MiB (21%)
Alignment                        : Aligned on interleaves
Interleave, duration           : 32 ms (0.96 video frame)

正在读取……

这里是其它用户补充的资源(我也要补充):

暂无补充资源
正在加载,请稍等...

点击查看所有14网友评论

 

(?) [公告]留口水、评论相关规则 | [活动]每日签到 轻松领取电驴经验

    小贴士:
  1. 类似“顶”、“沙发”之类没有营养的文字,对勤劳贡献的楼主来说是令人沮丧的反馈信息。
  2. 提问之前请再仔细看一遍楼主的说明,或许是您遗漏了。
  3. 勿催片。请相信驴友们对分享是富有激情的,如果确有更新版本,您一定能搜索到。
  4. 请勿到处挖坑绊人、招贴广告。既占空间让人厌烦,又没人会搭理,于人于己都无利。
  5. 如果您发现自己的评论不见了,请参考以上4条。