v

您的位置:VeryCD动漫剧场动画

动漫资源事务区


《超级大坏蛋短片:毁灭按钮》(Megamind: The Button of Doom)[720P]

  • 状态: 精华资源
  • 摘要:
    发行时间2010年
    语言英语
  • 时间: 2011/03/23 10:29:27 发布 | 2011/03/26 04:43:18 更新
  • 分类: 动漫  剧场动画 

life_is_good

精华资源: 6571

全部资源: 7301

相关: 分享到新浪微博   转播到腾讯微博   分享到开心网   分享到人人   分享到QQ空间   订阅本资源RSS更新   美味书签  subtitle
该内容尚未提供权利证明,无法提供下载。
中文名超级大坏蛋短片:毁灭按钮
英文名Megamind: The Button of Doom
资源格式720P
发行时间2010年
地区美国
语言英语
简介

IPB Image

【首播时间】 2010年
【字幕制作】 暂无


【内容介绍】

  本片是超级大坏蛋蓝光碟中附带的短片,由原班人马配音,讲述的是超级大坏蛋Megamind成为Metrocity守护者之后的故事。毁灭按钮被按下之后,一股毁灭性的力量被释放出来,意图毁灭城市...

【STAFF】

导演:汤姆·麦克格雷斯 Tom McGrath

【CAST】

威尔·法瑞尔 Will Ferrell....Megamind (voice)
蒂娜·菲 Tina Fey....Roxanne Ritchi (voice)
布拉德·皮特 Brad Pitt....Metro Man (voice)
乔纳·希尔 Jonah Hill....Titan (voice)
大卫·克罗斯 David Cross....Minion (voice)
Aramis Knight ....(voice)

代码
Source: Megamind: The Button of Doom 2010 1080p Blu-ray x264-ViSTA™

General
Complete name                    : Megamind The Button of Doom 2010 BRRip XvidHD 720p-NPW.avi
Format                           : AVI
Format/Info                      : Audio Video Interleave
File size                        : 392 MiB
Duration                         : 15mn 52s
Overall bit rate                 : 3 453 Kbps

Video
ID                               : 0
Format                           : MPEG-4 Visual
Format profile                   : Advanced Simple@L5
Format settings, BVOP            : 2
Format settings, QPel            : No
Format settings, GMC             : No warppoints
Format settings, Matrix          : Default (H.263)
Codec ID                         : XVID
Codec ID/Hint                    : XviD
Duration                         : 15mn 52s
Bit rate                         : 2 800 Kbps
Width                            : 1 280 pixels
Height                           : 712 pixels
Display aspect ratio             : 16:9
Frame rate                       : 23.976 fps
Color space                      : YUV
Chroma subsampling               : 4:2:0
Bit depth                        : 8 bits
Scan type                        : Progressive
Compression mode                 : Lossy
Bits/(Pixel*Frame)               : 0.128
Stream size                      : 318 MiB (81%)
Writing library                  : XviD 1.2.1 (UTC 2008-12-04)

Audio
ID                               : 1
Format                           : AC-3
Format/Info                      : Audio Coding 3
Mode extension                   : CM (complete main)
Codec ID                         : 2000
Duration                         : 15mn 52s
Bit rate mode                    : Constant
Bit rate                         : 640 Kbps
Channel(s)                       : 6 channels
Channel positions                : Front: L C R, Side: L R, LFE
Sampling rate                    : 48.0 KHz
Bit depth                        : 16 bits
Compression mode                 : Lossy
Stream size                      : 72.7 MiB (19%)
Alignment                        : Aligned on interleaves
Interleave, duration             : 42 ms (1.00 video frame)

正在读取……

这里是其它用户补充的资源(我也要补充):

暂无补充资源
正在加载,请稍等...

点击查看所有12网友评论

 

(?) [公告]留口水、评论相关规则 | [活动]每日签到 轻松领取电驴经验

    小贴士:
  1. 类似“顶”、“沙发”之类没有营养的文字,对勤劳贡献的楼主来说是令人沮丧的反馈信息。
  2. 提问之前请再仔细看一遍楼主的说明,或许是您遗漏了。
  3. 勿催片。请相信驴友们对分享是富有激情的,如果确有更新版本,您一定能搜索到。
  4. 请勿到处挖坑绊人、招贴广告。既占空间让人厌烦,又没人会搭理,于人于己都无利。
  5. 如果您发现自己的评论不见了,请参考以上4条。