v

您的位置:VeryCD音乐演唱会

音乐资源事务区


David Lanz&Gary Stroutsos -《Living Temples》[DVDRip]

  • 状态: 精华资源
  • 摘要:
    发行时间2008年
    语言英语
  • 时间: 2011/03/19 16:29:17 发布 | 2011/03/19 18:32:07 更新
  • 分类: 音乐  演唱会 

xiaochenjia

精华资源: 673

全部资源: 675

相关: 分享到新浪微博   转播到腾讯微博   分享到开心网   分享到人人   分享到QQ空间   订阅本资源RSS更新   美味书签  subtitle
该内容尚未提供权利证明,无法提供下载。
专辑中文名Living Temples
别名生活殿堂
资源格式DVDRip
发行时间2008年
地区美国
语言英语
简介

IPB Image

内容介绍:

2008年新世纪钢琴家David Lanz与长笛艺术家Gary Stroutsos再度合作,以美国西南部的自然景象为背景,在沙漠、红岩与大河上谱写的自由开放的旋律,这片纯净自然的天空,就是我们向往的心灵殿堂。这次与电影制片人Jan Nickman拍摄制作的DVD配合音乐非常大气唯美。(转自一听钟情音乐论坛同名专辑介绍,特此感谢!)

截图预览:

IPB Image

视频参数:

代码

ARTiCHOKE

SPRiNTER proudly presents...

Living.Temples.2008.DVDRip.XviD-SPRiNTER
http://www.imdb.com/title/tt1316421
Subtitles: N/A

Date: 2011.01
Genre: Musical

Release notes

Enjoy

News

We are currently looking for

- Suppliers who can provide pre-retail or retail dvds with decent upload
- 50Mbit dump providers with 1TB free space
- 100mbit .kr/.jp affiliation

sprinterhush.com

Greetings

NTX aAF FiCO HNR CiNEFiLE AEN HUMANiSM

Details

Format                          : AVI
Format/Info                      : Audio Video Interleave
File size                        : 351 MiB
Duration                        : 45mn 3s
Overall bit rate                : 1 088 Kbps
Writing application              : VirtualDubMod 1.5.10.2 (build 2540/release
Writing library                  : VirtualDubMod build 2540/release

Video
ID                              : 0
Format                          : MPEG-4 Visual
Format profile                  : Advanced SimpleL5
Format settings, BVOP            : Yes
Format settings, QPel            : No
Format settings, GMC            : No warppoints
Format settings, Matrix          : Default (H.263
Codec ID                        : XVID
Codec ID/Hint                    : XviD
Duration                        : 45mn 3s
Bit rate                        : 948 Kbps
Width                            : 640 pixels
Height                          : 352 pixels
Display aspect ratio            : 16:9
Frame rate                      : 23.976 fps
Color space                      : YUV
Chroma subsampling              : 4:2:0
Bit depth                        : 8 bits
Scan type                        : Progressive
Bits/(PixelFrame)              : 0.175
Stream size                      : 305 MiB (87
Writing library                  : XviD 1.1.2 (UTC 2006-11-01

Audio
ID                              : 1
Format                          : MPEG Audio
Format version                  : Version 1
Format profile                  : Layer 3
Codec ID                        : 55
Codec ID/Hint                    : MP3
Duration                        : 45mn 1s
Bit rate mode                    : Variable
Bit rate                        : 128 Kbps
Minimum bit rate                : 128 Kbps
Channel(s)                      : 2 channels
Sampling rate                    : 48.0 KHz
Stream size                      : 41.1 MiB (12
Alignment                        : Aligned on interleaves
Interleave, duration            : 24 ms (0.58 video frame
Interleave, preload duration    : 294 ms
Writing library                  : LAME3.95
Encoding settings                : -m s -V 6 -q 3 -lowpass 16 --vbr-old -b 128

引用

引用
希望更多的网友加入到国外名校开放课程整理、发布的队伍中来...

引用
资源来自网络收集 未经过一 一的质量 安全等检测
只是把收集的资源和各位驴友分享 仅作网络学习交流使用 请勿用于商业用途 !
希望各位下载的驴友能多多参与分流保源 happy.gif



专辑曲目

01. Sun Chasers 追赶太阳的人
02. Rio San Rafael 里约热内卢圣拉斐尔
03. Deser Star 沙漠之星
04. Invocation 引子
05. Rain Dancer 雨之舞
06. Sea of Mescalero 梅斯卡莱罗海
07. Temple Dance 庙堂之舞
08. Ancient Voices 远古的声音
09. Walk in Beauty 漫步美景
10. Living Temples 生活殿堂

正在读取……

这里是其它用户补充的资源(我也要补充):

暂无补充资源
正在加载,请稍等...

点击查看所有12网友评论

 

(?) [公告]留口水、评论相关规则 | [活动]每日签到 轻松领取电驴经验

    小贴士:
  1. 类似“顶”、“沙发”之类没有营养的文字,对勤劳贡献的楼主来说是令人沮丧的反馈信息。
  2. 提问之前请再仔细看一遍楼主的说明,或许是您遗漏了。
  3. 勿催片。请相信驴友们对分享是富有激情的,如果确有更新版本,您一定能搜索到。
  4. 请勿到处挖坑绊人、招贴广告。既占空间让人厌烦,又没人会搭理,于人于己都无利。
  5. 如果您发现自己的评论不见了,请参考以上4条。