v

您的位置:VeryCD动漫动漫周边

动漫资源事务区


《Hello Goodbye》[ボーマス11][同人音楽][No one hears][すこっぷ 1st Album][WAV+MP3(320Kbps)]

  • 状态: 精华资源
  • 摘要:
    发行时间2010年02月07日
    对白语言日语
    文字语言日文
  • 时间: 2011/03/19 15:53:22 发布 | 2011/03/22 17:58:39 更新
  • 分类: 动漫  动漫周边 

民国万岁

精华资源: 2

全部资源: 3

相关: 分享到新浪微博   转播到腾讯微博   分享到开心网   分享到人人   分享到QQ空间   订阅本资源RSS更新   美味书签  subtitle
该内容尚未提供权利证明,无法提供下载。
中文名Hello Goodbye
版本[ボーマス11][同人音楽][No one hears][すこっぷ 1st Album][WAV+MP3(320Kbps)]
发行时间2010年02月07日
地区日本
对白语言日语
文字语言日文
简介

IPB Image

【专辑介绍】

No one hears
すこっぷ - Hello Goodbye

All lyrics & music : scop (すこっぷ)
Illustration & Art Direction : matutori (まつとり)
Vocal : miku

ボーマス11に参加しま!すスペースは[A45] 、サークル名はNo one hearsです。

人気上昇中のボーカロイドプロデューサー“すこっぷ”Pのサークル【No one hears】からボーマス11にて放たれた新譜『Hello Goodbye』がとらのあな“専売”で登場!

思春期の女の子特有の儚さ、壊れやすさ、そして闇や強さをテーマにした作品で定評のある“すこっぷ”P。

メロディ・歌詞ともに多くのユーザー&ファンから共感を得ている実力派の“すこっぷ”Pが贈る今作は、ニコ動にて初の殿堂入り作品『マリオネットシンドローム』をはじめ未公開曲も含めた10曲を収録した初のボカロアルバム!

楽曲とマッチした“まつとり”氏のジャケットイラストにも大注目!
切なく、儚いボカロソングを聴きたいアナタにオススメの一作!是非この機会にチェックしてみてください♪

【収録曲】

01. Hello
02. らぶ·いぐにっしょん
03. 光
04. ローリーズルーム
05. よふかし
06. 星屑サテライト
07. マリオネットシンドローム
08. もしも話
09. ハローグッバイ
10. Goodbye


代码
范围状态及错误

已选择范围

     文件名 C:\Users\jinchengong\Documents\初音ミク-  Hello Goodbye.wav

     复制被中止

状态报告结尾

------------------------------------------------------------

Exact Audio Copy V0.99 prebeta 5 from 4. May 2009

EAC 抓取日志文件从19. 三月 2011, 14:12

初音ミク /  Hello Goodbye

使用驱动器  :HL-DT-STDVD-RAM GH22NP20   Adapter: 0  ID: 0

读取模式     : 保护
使用精确流   : 是
废除音频缓冲 : 是
使用 C2 指针 : 否

读取偏移校正                   : 102
读取 Lead-In 和 Lead-Out       : 否
用静音填充抓取中丢失偏移的采样 : 是
去除首尾静音块                 : 否
在 CRC 计算中使用了空样本      : 否
已用接口                       : Win NT 及 2000 本地 Win32 接口

所用输出格式 : 内部 WAV 函数
样本格式     : 44.100 Hz;16 Bit;立体声


被抓轨 CD 的 TOC

     音轨 |   开始   |   长度   | 起始扇区 | 结尾扇区
    --------------------------------------------------
       1  |  0:00.00 |  2:25.48 |       0  |   10922  
       2  |  2:25.48 |  3:32.56 |   10923  |   26878  
       3  |  5:58.29 |  4:46.60 |   26879  |   48388  
       4  | 10:45.14 |  4:56.64 |   48389  |   70652  
       5  | 15:42.03 |  5:12.54 |   70653  |   94106  
       6  | 20:54.57 |  4:57.59 |   94107  |  116440  
       7  | 25:52.41 |  4:01.17 |  116441  |  134532  
       8  | 29:53.58 |  5:30.69 |  134533  |  159351  
       9  | 35:24.52 |  4:50.56 |  159352  |  181157  
      10  | 40:15.33 |  7:18.40 |  181158  |  214047  


范围状态及错误

已选择范围

     文件名 C:\Users\jinchengong\Documents\初音ミク-  Hello Goodbye.wav

     峰值电平 98.8 %
     范围质量 100.0 %
     复制 CRC FC128753
     复制成功

没有错误发生


AccurateRip 概要

音轨  1  数据库中未见
音轨  2  数据库中未见
音轨  3  数据库中未见
音轨  4  数据库中未见
音轨  5  数据库中未见
音轨  6  数据库中未见
音轨  7  数据库中未见
音轨  8  数据库中未见
音轨  9  数据库中未见
音轨 10  数据库中未见

没有任何音轨出现在 AccurateRip 数据库中

状态报告结尾

正在读取……

这里是其它用户补充的资源(我也要补充):

暂无补充资源
正在加载,请稍等...

点击查看所有24网友评论

 

(?) [公告]留口水、评论相关规则 | [活动]每日签到 轻松领取电驴经验

    小贴士:
  1. 类似“顶”、“沙发”之类没有营养的文字,对勤劳贡献的楼主来说是令人沮丧的反馈信息。
  2. 提问之前请再仔细看一遍楼主的说明,或许是您遗漏了。
  3. 勿催片。请相信驴友们对分享是富有激情的,如果确有更新版本,您一定能搜索到。
  4. 请勿到处挖坑绊人、招贴广告。既占空间让人厌烦,又没人会搭理,于人于己都无利。
  5. 如果您发现自己的评论不见了,请参考以上4条。