v

您的位置:VeryCD资料其它资料

资料资源事务区


《海洋的真相》(Sea the Truth)[DVDRip]

  • 状态: 精华资源
  • 摘要:
    发行时间2010年05月19日
    对白语言英语
    文字语言英文
  • 时间: 2011/03/04 23:16:29 发布 | 2011/03/13 22:33:35 更新
  • 分类: 资料  其它资料 

happylian

精华资源: 37

全部资源: 47

相关: 分享到新浪微博   转播到腾讯微博   分享到开心网   分享到人人   分享到QQ空间   订阅本资源RSS更新   美味书签  subtitle
该内容尚未提供权利证明,无法提供下载。
中文名海洋的真相
英文名Sea the Truth
别名难以忽视的海洋真相
资源格式DVDRip
发行时间2010年05月19日
地区荷兰
对白语言英语
文字语言英文
简介

IPB Image
◎译  名 海洋的真相
◎片  名 Sea the Truth
◎年  代 2010年5月19
◎国  家 荷兰
◎类  别 资料>纪录片
◎语  言 英语
◎字  幕 无字幕
◎IMDB评分
◎IMDB链接
◎文件格式 FLV
◎视频尺寸 600×480
◎文件大小 381M
◎片  长 54分钟19秒
◎导  演 Karen Soeters
◎主  演 Marianne Thieme,Dos Winkel
◎出版机构 尼可拉斯‧皮尔森基金会(Nicolaas G. Pierson Foundation)

内容简介:

Sea the Truth(《海洋的真相》)是一部关于海洋保护的纪录片,由荷兰“爱护动物党”的自然科学事务处——又名“尼可拉斯‧皮尔森基金会”(Nicolaas G. Pierson Foundation)出品发行,2010年8月23日于荷兰阿姆斯特丹首映。

该基金会曾经推出《面对肉食的真相》(Meat the Truth),此片被视为美国前副总统、总统候选人戈尔(Al Gore)的影片《难以忽视的真相》(An Inconvenient Truth)的续集,因为戈尔的影片虽说明了全球暖化所产生的问题,但却没有提到造成全球暖化的最大元凶——畜牧业。

如果我们以目前的速度继续捕鱼吃,约40年就会无鱼可捕。科学家已宣布这个消息多年,而且渔民们也越来越了解海中并非有取之不竭的鱼这一事实。世界首次面对无鱼可捕的海域是1992年在纽芬兰。加拿大政府宣布了一项全面禁渔令,有数百年历史的鳕鱼渔业宣告结束。纽芬兰没有了鳕鱼,而且鳕鱼至今没有回归。世界其它地方会不会步纽芬兰之后尘呢?

在《海洋的真相》这部影片中,我们希望弥补失衡:现在海里还有多少鱼类?

科学家所告诫的2048年海洋的鱼将被捕光是真的吗?如果这消息是真的,对此谁会做些什么?有人采取什么行动来改变这一趋势吗?政客们会听信这些令人震惊的言辞吗?作为个人你能做些什么呢?我们在寻找这些问题的答案。

在这部影片中,有两个穿插的故事线索。一个是海洋的捍卫者水下摄影师道斯·温克尔。他对海洋忧心忡忡,因为历经30年的潜水,他亲眼目睹了水底世界变得越来越丑,越来越空荡。电影镜头追随着多斯的活动给我们展示海洋的真相。

此外,还有一个做研究的海洋生物学家。多斯所说的引出了诸多问题,我们要得到科学家、专业人士、有经验的专家、政治家和其他利益相关者对这些问题的回答。这位海洋生物学家旅途访问的各地和各类背景的人通过多斯·温克尔的讲出来。影片中涉及到的话题包括:捕捞配额、政府补贴、非法捕捞、养殖鱼、健康和可持续。

About the film

The state of our oceans and seas is the main focus in “Sea the Truth”. Leading scientists such as Daniel Pauly suggest that if we continue to catch and eat fish at the current rate, the oceans and seas will be empty within 40 years. The hunt for fish is an economic monster on the run: large bottom trawlers are scraping the bottoms of the seas empty, taking with them all living things with destructive force. The massive amount of bycatch is thrown back into the sea, maimed or dead.

Under the guidance of Dutch MP Marianne Thieme, two young marine biologists Marianne van Mierlo and Barbara van Genne, are searching worldwide for scientific information about the condition of our biggest ecosystems, which cover more than two thirds of our planet. Underwater photographer Dos Winkel shows them the beauty of marine life and the enormous threats to which it is exposed. For the documentary the producers filmed in Newfoundland, on Bonaire, on the North Sea, the Azores and at various locations in the Netherlands. Authorities offer the solution of sustainable fisheries projects while leading scientists say that every fish that is taken now, is one too many. This documentary shows that, unfortunately, there is no such thing as “sustainable fishing”.

“Sea the Truth” premiered on May 19th in Amsterdam, The Netherlands.

组织播放电影

详情请点击: http://www.savetheplanet.org.cn/gb/activit...how.html

拯救地球网现征求组织播放英国素食协会最新宣传片《关爱生命》

如果您在您所在的单位、社区或学校等可以组织较大的观摩会,我们也可以派人前往放映及讲解我们翻译的3个电影,或提供 DVD 及海报等宣传资料,请参考:《微妙的平衡》小型放映会,《面对肉类的真相》小型放映会 和 《关爱生命》。另外,我们还推荐播放电影《地球公民》,我们可以提供DVD(中文字幕)。

您只需报给我们以下信息 vegpeking('at')gmail.com:

•联系人姓名:
•联系电话:
•地址(快递能到达):
•播放地点(如有可能推荐露天播放):
•主办和组织者所属单位及简介(如是社团或NGO,请说明宗旨):
•播放地所属单位,环境、条件等,请尽量详细提供:
•希望什么时间播放:
•预计观看人数(至少大于10人):
•观众来源:
•是否有播放设备(如投影仪等):
•对于我们提供的DVD,可否承诺不复制、不用于商业目的:
•准备播放什么电影(上述的3种):
•举办观摩会的同时是否还有组织其它附属活动(如有请详细介绍):
•是否需要电影海报(种类和数量):
•是否可以支付快递费用(到付):
下载《微妙的平衡─真相》电影介绍PPT文件,电影海报:PDF文档可以制作宝丽布喷绘(80cm X 180cm) 。

下载《面对肉类的真相》电影介绍PPT文件,电影海报:JPG文档可以制作宝丽布喷绘(80cm X 180cm) 。

下载《关爱生命》电影介绍PPT文件。

视频信息:

General
Complete name : D:\My Documents\Downloads\Video\Sea The Truth.flv
Format : Flash Video
File size : 381 MiB
Duration : 54mn 19s
Overall bit rate : 980 Kbps
Tagging application : Moyea FLV Lib
Video
Format : AVC
Format/Info : Advanced Video Codec
Format profile : Main@L3.0
Format settings, CABAC : Yes
Format settings, ReFrames : 3 frames
Muxing mode : Container profile=Unknown@3.0
Duration : 54mn 19s
Bit rate : 875 Kbps
Width : 600 pixels
Height : 480 pixels
Display aspect ratio : 5:4
Frame rate mode : Variable
Frame rate : 25.000 fps
Resolution : 24 bits
Colorimetry : 4:2:0
Scan type : Progressive
Bits/(Pixel*Frame) : 0.122
Stream size : 340 MiB (89%)
Audio
Format : AAC
Format/Info : Advanced Audio Codec
Format version : Version 4
Format profile : LC
Format settings, SBR : No
Duration : 54mn 19s
Bit rate : 96.0 Kbps
Channel(s) : 2 channels
Channel positions : L R
Sampling rate : 44.1 KHz
Resolution : 16 bits
Stream size : 37.3 MiB (10%)

正在读取……

这里是其它用户补充的资源(我也要补充):

暂无补充资源
正在加载,请稍等...

点击查看所有66网友评论

 

(?) [公告]留口水、评论相关规则 | [活动]每日签到 轻松领取电驴经验

    小贴士:
  1. 类似“顶”、“沙发”之类没有营养的文字,对勤劳贡献的楼主来说是令人沮丧的反馈信息。
  2. 提问之前请再仔细看一遍楼主的说明,或许是您遗漏了。
  3. 勿催片。请相信驴友们对分享是富有激情的,如果确有更新版本,您一定能搜索到。
  4. 请勿到处挖坑绊人、招贴广告。既占空间让人厌烦,又没人会搭理,于人于己都无利。
  5. 如果您发现自己的评论不见了,请参考以上4条。