v

您的位置:VeryCD综艺纪录片

综艺资源事务区


《环境影视:关爱生命》(Environment Films:Making the Connection)全一集[MP4]

  • 状态: 精华资源
  • 摘要:
    发行时间2010年11月01日
    地区英国
    语言英语
  • 时间: 2011/03/04 18:46:38 发布 | 2011/03/30 17:17:32 更新
  • 分类: 综艺  纪录片 

happylian

精华资源: 37

全部资源: 47

相关: 分享到新浪微博   转播到腾讯微博   分享到开心网   分享到人人   分享到QQ空间   订阅本资源RSS更新   美味书签  subtitle
该内容尚未提供权利证明,无法提供下载。
中文名环境影视:关爱生命
英文名Environment Films:Making the Connection
资源格式MP4
版本全一集
发行时间2010年11月01日
制作发行Environment Films=环境影视
The Vegan Society=英国素食协会
地区英国
语言英语
简介

IPB Image

内容简介

英文片名:Making the Connection

片长:30分钟

制片:由环境影视 (Environment Films) 和英国素食协会 (The Vegan Society) 合作制片

翻译:英国素食协会授权北京国际素食俱乐部翻译。

剧情:本片通过不同人物的视角,介绍了纯素食生活方式的各个层面。

人物:著名素食餐馆的厨师、纯素食运动员、饮食健康专家、纯素食母亲及其婴儿、国会议员、环保人士、农场主、大学生和作家等。

影片通过对不同人物的采访,介绍了纯素食生活方式的各个层面。内容涉及美食、营养、健康、环境、有机农垦和动物福利等等。

英国素食协会成立于1944年,具有悠久的历史,曾拍摄过广为流传的素食宣传影片《吞噬地球》。此次新片的拍摄目的,是以一种新的方式向大众讲解纯素食的诸多利益。

由于影片中人物讲述的都是个人的亲身体验,所以让观众感觉影片更贴近生活,更容易理解。影片从伦敦萨夫纯素食餐馆开始采访一个纯素食大厨,一道道做工考究的美味素食,一下子就缩短了观众的距离感。

一位纯素食的马拉松运动员向观众讲述了纯素食是如何帮忙她跑出了好成绩。

一位在国家卫生局工作的营养师讲述了她对纯素食的喜爱,以及纯素食给她带来的健康生活。

一位当健身教练的纯素食母亲向观众讲述了她从怀孕、生产到哺育婴儿的全过程,健康的纯素宝宝让她倍感自豪。

一位国会议员谈到了人类的饮食习惯与粮食安全和地球的可持续性至关重要。

一位环保人士讲述畜牧业对环境的巨大伤害。

一位种植农场的农场主为观众讲述了自己从事有机农垦的经验,让人们从一个无养殖的有机农场中,看到了拯救生态环境的希望。

一位作家和诗人告诉我们,“成为纯素食者是一个主动、积极,充满慈悲的选择”。

……

影片告诉人们,要选择纯素饮食,关爱生命,保护环境,拯救地球。


Making the Connection

Do you have to choose between a healthy, fun, modern lifestyle and a fair, sustainable, compassionate lifestyle?

No, you can have it all!

"Making the Connection" is a new film which invites you on a journey - together with a chef, a farmer, an MP, an athlete, a dietician, a poet - to explore an exciting lifestyle which combines delicious, healthy food with tackling many of the global challenges facing us today.

Will you make the connection and become part of the solution?

Launched on World Vegan Day 2010, Monday 1 November, "Making the Connection" is a 30 minute film produced by Environment Films . The DVD is freely available from The Vegan Society for media professionals and public showings. 'Making the Connection' is also online in eight chapters.

Media Contact: Amanda Baker - Mobile: (07847) 664 793 - Email: media@vegansociety.com - Tel: (0121) 523 1737

组织播放电影

第二个文件(319M)下载地址: http://www.savetheplanet.org.cn/gb/download/index.html

详情请点击: http://www.savetheplanet.org.cn/gb/activit...how.html

拯救地球网现征求组织播放英国素食协会最新宣传片《关爱生命》

如果您在您所在的单位、社区或学校等可以组织较大的观摩会,我们也可以派人前往放映及讲解我们翻译的3个电影,或提供 DVD 及海报等宣传资料,请参考:《微妙的平衡》小型放映会,《面对肉类的真相》小型放映会 和 《关爱生命》。另外,我们还推荐播放电影《地球公民》,我们可以提供DVD(中文字幕)。

您只需报给我们以下信息 vegpeking('at')gmail.com:

•联系人姓名:
•联系电话:
•地址(快递能到达):
•播放地点(如有可能推荐露天播放):
•主办和组织者所属单位及简介(如是社团或NGO,请说明宗旨):
•播放地所属单位,环境、条件等,请尽量详细提供:
•希望什么时间播放:
•预计观看人数(至少大于10人):
•观众来源:
•是否有播放设备(如投影仪等):
•对于我们提供的DVD,可否承诺不复制、不用于商业目的:
•准备播放什么电影(上述的3种):
•举办观摩会的同时是否还有组织其它附属活动(如有请详细介绍):
•是否需要电影海报(种类和数量):
•是否可以支付快递费用(到付):
下载《微妙的平衡─真相》电影介绍PPT文件,电影海报:PDF文档可以制作宝丽布喷绘(80cm X 180cm) 。

下载《面对肉类的真相》电影介绍PPT文件,电影海报:JPG文档可以制作宝丽布喷绘(80cm X 180cm) 。

下载《关爱生命》电影介绍PPT文件。


视频信息

D:\My Documents\Downloads\Video\Making the Connection.mp4
General
Complete name : D:\My Documents\Downloads\Video\Making the Connection.mp4
Format : MPEG-4
Format profile : Base Media
Codec ID : isom
File size : 373 MiB
Duration : 31mn 38s
Overall bit rate : 1 650 Kbps
Encoded date : UTC 2010-10-13 20:03:23
Tagged date : UTC 2010-10-14 20:03:37
Video #1
ID : 1
Format : AVC
Format/Info : Advanced Video Codec
Format profile : High@L3.1
Format settings, CABAC : Yes
Format settings, ReFrames : 4 frames
Codec ID : avc1
Codec ID/Info : Advanced Video Coding
Duration : 31mn 38s
Bit rate mode : Variable
Bit rate : 1 489 Kbps
Maximum bit rate : 4 685 Kbps
Width : 1 280 pixels
Height : 720 pixels
Display aspect ratio : 16:9
Frame rate mode : Constant
Frame rate : 25.000 fps
Resolution : 24 bits
Colorimetry : 4:2:0
Scan type : Progressive
Bits/(Pixel*Frame) : 0.065
Stream size : 337 MiB (90%)
Writing library : Vimeo Encoder
Encoded date : UTC 2010-10-13 20:03:23
Tagged date : UTC 2010-10-13 20:03:29
Audio #2
ID : 2
Format : AAC
Format/Info : Advanced Audio Codec
Format version : Version 4
Format profile : LC
Format settings, SBR : No
Codec ID : 40
Duration : 31mn 38s
Bit rate mode : Variable
Bit rate : 158 Kbps
Maximum bit rate : 285 Kbps
Channel(s) : 2 channels
Channel positions : L R
Sampling rate : 44.1 KHz
Resolution : 16 bits
Stream size : 35.6 MiB (10%)
Encoded date : UTC 2010-10-13 20:03:28
Tagged date : UTC 2010-10-13 20:03:29

正在读取……

这里是其它用户补充的资源(我也要补充):

暂无补充资源
正在加载,请稍等...

点击查看所有32网友评论

 

(?) [公告]留口水、评论相关规则 | [活动]每日签到 轻松领取电驴经验

    小贴士:
  1. 类似“顶”、“沙发”之类没有营养的文字,对勤劳贡献的楼主来说是令人沮丧的反馈信息。
  2. 提问之前请再仔细看一遍楼主的说明,或许是您遗漏了。
  3. 勿催片。请相信驴友们对分享是富有激情的,如果确有更新版本,您一定能搜索到。
  4. 请勿到处挖坑绊人、招贴广告。既占空间让人厌烦,又没人会搭理,于人于己都无利。
  5. 如果您发现自己的评论不见了,请参考以上4条。