v

您的位置:VeryCD音乐古典音乐

音乐资源事务区


V.A. -《极致:著名钢琴协奏曲选集》(Ultimate Piano Concertos) DECCA极致系列 (5CD Box-set)[APE]

  • 状态: 精华资源
  • 摘要:
    发行时间2008年
  • 时间: 2008/06/13 14:50:51 发布 | 2008/06/20 17:47:58 更新
  • 分类: 音乐  古典音乐 

Leonson

精华资源: 78

全部资源: 78

相关: 分享到新浪微博   转播到腾讯微博   分享到开心网   分享到人人   分享到QQ空间   订阅本资源RSS更新   美味书签  subtitle
该内容尚未提供权利证明,无法提供下载。
专辑英文名Ultimate Piano Concertos
专辑中文名极致:著名钢琴协奏曲选集
艺术家V.A.
资源格式APE
版本 DECCA极致系列 (5CD Box-set)
发行时间2008年
地区英国
简介

IPB Image

专辑名称:Ultimate Piano Concertos, the Essential Masterpieces (5CD)
唱片公司:Decca
发行编号:478 0108 DB5
录音制式:ADD / DDD
专辑类型:Classical
CD编号:478 0109-13
资源出处:Leonson私人CD原版原抓

专辑介绍

关于DECCA的《Ultimate》系列

DECCA《Ultimate》系列包括多套5CD一组的主题选集,着重地介绍了各个时代的大师们最有影响力、最广为流传的古典音乐作品,其中包括贝多芬、巴赫、肖邦、柴可夫斯基、莫扎特、舒伯特等的必听之作。此外,该系列还以不同体裁作为类别划分,加入了古典小提琴、大提琴、钢琴、钢琴协奏曲、休闲古典、巴洛克、歌剧等主题选集。虽然这个系列中某些选曲的录音年份有些久远,但演绎者中不乏宗师级的人物,故欣赏价值也是颇高的。全系列由环球公司下属的德国EDC压片生产,品质优良,而封面设计则简约而不失典雅。该系列比较适合初涉古典音乐的朋友欣赏、收藏,通过这套入门级的CD能对古典音乐有一个基本的、初步的认知和了解。而已是古典音乐爱好者的乐友,或许也能从中找到一些自己可能还没有听过的演绎版本。

如需要检索该系列各选集的下载地址,请参看【DECCA《极致》系列的下载地址列表】,地址如下:
http://www.VeryCD.com/groups/@g2121418/705001.topic


此次发布的《着名钢琴协奏曲选集》收录了柴可夫斯基降b小调第一钢琴协奏曲、拉赫玛尼诺夫c小调第二钢琴协奏曲、格里格a小调钢琴协奏曲、舒曼a小调钢琴协奏曲、贝多芬第四、第五钢琴协奏曲、莫扎特第二十一、第二十五钢琴协奏曲、肖邦两首钢琴协奏曲以及门德尔松的随想回旋曲。其中拉赫玛尼诺夫的《c小调第二钢琴协奏曲》虽然在此前发布过的《拉赫玛尼诺夫选集》中已出现过,但其演绎阵容是不同的。至于钢琴协奏曲究竟是怎么样的一种音乐体裁,大家不妨在网络上搜索一番,想必也能找到令人满意的论述。


部分作曲家及演奏者简介

格里格(Edvard Grieg)

1843~1907,挪威作曲家,19世纪下半叶挪威民族乐派代表人物。格里格生于卑尔根的商人家庭,1907年9月4日卒于同地。6岁随母学钢琴,得到音乐启蒙教育。经着名小提琴家O.布尔推荐,1858~1862年在莱比锡音乐学院学习。毕业后,在卑尔根举行首次作品音乐会。1863~1866年在丹麦首都哥本哈根活动,与挪威民族音乐的倡导者音乐家R.诺拉克等人共创 “尤特皮”音乐社,创作并介绍斯堪的纳维亚国家的民族音乐。回国后,为建立挪威民族乐派积极展开音乐活动。1871年创立克里斯蒂安尼亚(今挪威首都奥斯陆)音乐协会,曾任该协会爱乐乐团和卑尔根“和谐”合唱团指挥,并多次到英、法、德、意等国举行作品音乐会。1874年被政府授予终身年俸,1890年被选为法兰西艺术院院士,曾先后获英国剑桥大学和牛律大学授予的音乐名誉博士衔。逝世时,挪威政府为他举行了国葬。

他的创作主要是钢琴抒情小品和声乐作品(包括百余首抒情独唱曲)。如歌曲《来自祖国》(1894),以淳朴的民间曲调,表达了对祖国真挚的感情,钢琴曲《祖国之歌》(1868),以古挪威民间叙事歌的庄严风格,赞颂了民族历史的光荣,诗人比昂松特为此曲配上《前进!这是我们先辈们的战斗呼唤》的诗篇,借颂扬祖先的业绩,为现实的民族独立斗争呐喊。在合唱《水手之歌》(1868)、《乡土在望》(1870)和许多民族题材的作品里,都以鲜明的民族情调表达了维护民族尊严和争取独立的愿望,适应了当时挪威历史发展的潮流,具有一定的历史进步意义。

在许多以个人精神生活为题材的抒情歌曲里,格里格表达了人生的悲欢离合之情,歌颂了爱情、母爱和友谊,为“消逝的日子”写过叹惜的哀调,为“孤独的流浪汉”唱出了同情的短歌。如在《我爱你》(1864)、《茅舍》(1869)、《游吟艺人之歌》(1876)《母亲的忧伤》(1868)等形象单一并具有随笔性的浪漫抒情歌曲里,他着力于细腻的心理刻划和独具一格的艺术意境,笔调简洁,形象真切,渗透着强烈的挪威民族的浪漫主义感情色彩,具有动人的艺术魅力。

他的具有卓越艺术成就和民族特点的作品,还有早期创作的《a小调钢琴协奏曲》(1868),弦乐曲《两首悲调》(《创伤》和《晚春》,1881_)、 G大调《第二小提琴奏鸣曲》(1867)、c小调《第叁小提琴奏鸣曲》(1887)、《g小调弦乐四重奏》(1877~1878)、《e小调钢琴奏鸣曲》(1865)。为纪念丹麦民族戏剧奠基者、戏剧家L.H.B.霍尔堡写的《霍尔堡康塔塔》和钢琴组曲《霍尔堡时代》(1884,曾改编成弦乐组曲);以民歌主题写成的标题幻想性小品《g小调钢琴叙事曲》(1876)等,这些作品都体现了格里格在钢琴抒情小品里的思想情趣和清新的格调。

---------------------------------------------------------------------------------------------------------------

克劳迪·阿劳 (Claudio Arrau): 智利钢琴家。1903年2月6日出生于奇廉(Chillan)。母亲是一位业余钢琴家。阿劳具有很高的音乐天赋,4岁时就能视奏弹出贝多芬奏鸣曲的一个乐章。5岁时举行了第一次独奏会,先后在奇廉与圣地亚哥登台演出。8岁在圣地亚哥正式登台举行独奏会。两年后智利政府为他提供出国学习的费用,他得以在柏林随施特恩音乐学院教授克劳泽(Martin Krause)学习。在此期间先后获伊巴赫奖和霍兰德奖。1914年在柏林举办了首演音乐会,从此开始演奏生涯。此后在德国和北欧巡回演出,获得了一系列比赛大奖,并与尼基什、富特文格勒等知名指挥家合作过。这使他蜚声乐坛,被誉为神童。1921年起,在南美、英国、北美等地演出。1925年受聘为施特恩音乐学院教授,执教一直到1940年。1927年获日内瓦国际钢琴比赛大奖。此后在世界各地访问演出,包括苏联、柏林、墨西哥城和圣地亚哥。1940年在圣地亚哥创建了一所钢琴学校。1941年定居纽约,从事演奏及教学。1947年起先后到奥地利、南非、以色列、印度、日本、布拉格、布达佩斯等地旅行演奏,誉满全球。1965年、1968年、1972年访问亚洲。1979年获美国籍,但同时保留了智利籍。1991年6月9日逝世于奥地利。阿劳多年接受德奥正统教育,演奏带有浓厚的德国风格,纯正严谨,含蓄内在,并融入个人深刻的理解和情感,尽可能地理解作曲家的意图,在此基础上让想象力升华和飞跃。他擅长贝多芬作品,特别是表现它的力量。 (介绍摘自“唯美空间”)

克利福德·柯曾(Clifford Curzon):英国钢琴家。1907年5月18日出生于伦敦。1919年进入皇家音乐学院,师从雷迪和古德森。16岁首次在皇后音乐厅演奏巴赫的叁重协奏曲,得到音乐界好评。1926年毕业后留校任助教。1928-1930年定期至柏林随施纳贝尔深造。此后又到巴黎,受兰多芙斯卡和布朗热的指导。1932年回到英国,不久辞去教职,专心于演奏,从此作为钢琴演奏家、室内乐家活跃于欧美舞台。1958年被英国王室授予不列颠帝国叁级勋位,1977年受封为爵士。1970年,利兹大学授予他音乐博士学位。1982年9月1日逝世于伦敦。库尔宗是英国的代表性钢琴家,他的演奏端庄内敛,触键清晰透彻,音色晶莹优美。坚实的外表下洋溢着深深的情感,把刚健的节奏和内心庄严宁静的感情完美地结合起来。他的演奏曲目范围很广,特别擅长莫扎特的作品,录制过不少优秀唱片,被誉为当代“最伟大的、活着的莫扎特”。他与塞尔指挥伦敦交响乐团合作录制的勃拉姆斯第一钢琴协奏曲,较好地表现了作曲家的内心世界。他还是一位杰出的室内乐演奏家,录制的独奏与重奏都有很高造诣。

克里斯蒂娜·奥提兹(Cristina Ortiz):巴西女钢琴家。虽然克里斯蒂娜·奥提兹旅居英国多年,但她的演奏融合了热情,自发性以及与生俱来的巴西文化传统中所带有的极具个性的魅力。作为一名世界级着名的职业音乐会演奏家和唱片灌录演奏家,她与全球各地的听众建立并保持非常特殊的联系,以至于使她成为全球最受欢迎和备受追崇的独奏家之一。她对钢琴事业的热情投入不但体现在拥有宽广的曲目范围,内容不仅有独奏,协奏曲,还包括室内乐作品,合作者有:Antonio Meneses、Truls Mork,、Kurt Nikkanen 以及Uto Ughi;而且还体现在大师班,培训班教学中所表现出令人惊奇的与人沟通的才能——为学生提供了贯穿整个音乐世界的真实灵感的源泉。近年来,奥提兹女士特别将她的注意力转向了自己独奏兼指挥乐队的演出,其中包括在维也纳与布拉格室内乐团的合作演出以及与伦敦室内乐团为Collins Classics唱片公司合作录制的唱片。与此同时,她还继续与世界着名指挥家合作,例如Vladimir Ashkenazy、Neeme Järvi、Mariss Jansons、David Zinman等;与之合作的乐队包括柏林爱乐、维也纳爱乐、克里夫兰管弦乐团、芝加哥交响乐团、捷克爱乐以及英格兰的爱乐乐团等。在音乐会与唱片录制中,她致力于推广巴西音乐的热情是显而易见的:从为Decca唱片公司录制的Villa - Lobos五首钢琴协奏曲,直到于1996年美国卡内基音乐厅在Dennis Russell Davies指挥下成功首演Guarnieri的“Chôro”钢琴协奏曲。与此同时,她对大量伟大的钢琴作品,从贝多芬到伯恩斯坦的诠释始终被公众及评论界所称道并喜爱。她还将听众的目光吸引到一些非常有价值但不被人所熟悉的作品上:例如1997年为Carlton Classics唱片公司录制的舒曼的夫人创作的钢琴独奏曲。

博列特(Jorge Bolet):1914-1990,美藉古巴钢琴家,12岁获美国科蒂斯音乐学院奖学金到该院留学,在萨佩顿(Saperton)班学钢琴,1932-1933年师从戈多夫斯基,1935年拜罗森塔尔为师,接着又从鲁道夫.塞尔金深造1937年在举行独奏会而崭露头角,1938年获霍夫曼钢琴比赛奖,二战中参军,战后继续演奏生涯。博列特被称为浪漫乐派钢琴演奏家的最后代表,他的演奏是抒情与狂想的很好结合,所以被称为「李斯特的代表」。博列特在Decca录制了9张李斯特作品选集,是其代表性唱片。他演奏戈多夫斯基改编的肖邦练习曲,也是极为精彩的录音。(介绍摘自VC,感谢发布者“vibra128”)

史蒂芬·科瓦切维奇(Stephen Kovacevich):1940年出生于美国加州圣培卓市。直到1970年之前他都以毕夏普. 寇瓦谢维契为名。1948年他跟随列夫·修尔学习。1952年他第一次在旧金山公开演出。1959年在伦敦学习。1961年他在伦敦威格模厅展开他的欧洲首演演出贝多芬《狄亚贝里》主题变奏。1967年在纽约首演之后,便一直巡回欧洲、美国、远东地区、纽西兰、和南美洲。直到1970年他为飞利浦录了许多唱片,其中巴尔托克第二钢琴协奏曲录音得到爱迪生奖。1948年他开始另一个音乐生涯,主要担任澳洲室内乐团的指挥。1990年被指定为爱尔兰室内乐团总监及首席指挥。同年他在好莱坞碗型剧院与洛杉矶爱乐合作,边演奏钢琴边指挥两套不同的莫扎特曲目。史蒂芬·寇瓦谢维契被公认为杰出的古典及浪漫时期钢琴曲目的诠释者。他最喜欢的曲目(至少是录音曲目)是贝多芬的音乐。

波斯特尼科娃(Viktoria Postnikova):俄罗斯女钢琴家,1967年毕业于莫斯科音乐学院,期间师从雅可夫·弗利尔教授攻读研究生课程。1965年在国际肖邦比赛中获奖,其后在英国、葡萄牙及俄罗斯的重要比赛中也获得了奖项。波丝特尼柯娃善于演奏各国古典作品及俄罗斯传统钢琴作品,其最卓越的成就在于录制了柴可夫斯基的钢琴作品全集。她与丈夫、俄罗斯指挥家根纳季·罗杰斯特文斯基一道参与了许多音乐会、独奏会演出及录音工作。


特别说明:
由于带宽限制,请大家在下载时给予充足的耐性;
专辑曲目内的年份为录音年份,中文曲名仅供参考;
本人所发布的任何资源仅供试听之用。有需要的朋友请购买正版CD;
如有乐友转发此帖至其它网站或论坛,请自觉注明原出处为www.VeryCD.com,并给出ED2K链接。

引用
LOG文件


CD1---------------------------------CD1

Exact Audio Copy V0.99 prebeta 4 from 23. January 2008

EAC 抓取日志文件从13. 九月 2008, 15:17

Various / Ultimate Piano Classical CD1

使用驱动器 :PIONEER DVD-RW DVR-112 Adapter: 3 ID: 0

读取模式 : 保护
使用精确流 : 是
废除音频缓冲 : 是
使用 C2 指针 : 否

读取偏移校正 : 48
读取 Lead-In 和 Lead-Out : 是
用静音填充抓取中丢失偏移的采样 : 是
去除首尾静音块 : 否
在 CRC 计算中使用了空样本 : 是
已用接口 : Win NT 及 2000 本地 Win32 接口

所用输出格式 : 用户定义的编码器
已选比特率 : 1024 kBit/s
质量 : 高
添加 ID3 标签 : 否
命令行压缩器 : C:\Program Files\Exact Audio Copy\FLAC\FLAC.EXE
附加命令行参数 : -6 -V -T "ARTIST=%a" -T "TITLE=%t" -T "ALBUM=%g" -T "DATE=%y" -T "TRACKNUMBER=%n" -T "GENRE=%m" -T "COMMENT=%e" %s -o %d


被抓轨 CD 的 TOC

音轨 | 开始 | 长度 | 起始扇区 | 结尾扇区
--------------------------------------------------
1 | 0:00.33 | 1:55.55 | 33 | 8712
2 | 1:56.13 | 3:59.00 | 8713 | 26637
3 | 5:55.13 | 3:47.00 | 26638 | 43662
4 | 9:42.13 | 2:05.02 | 43663 | 53039
5 | 11:47.15 | 2:47.73 | 53040 | 65637
6 | 14:35.13 | 5:58.00 | 65638 | 92487
7 | 20:33.13 | 2:59.00 | 92488 | 105912
8 | 23:32.13 | 5:51.47 | 105913 | 132284
9 | 29:23.60 | 1:48.28 | 132285 | 140412
10 | 31:12.13 | 2:44.00 | 140413 | 152712
11 | 33:56.13 | 7:09.00 | 152713 | 184887
12 | 41:05.13 | 3:08.00 | 184888 | 198987
13 | 44:13.13 | 5:10.00 | 198988 | 222237
14 | 49:23.13 | 3:13.47 | 222238 | 236759
15 | 52:36.60 | 4:59.48 | 236760 | 259232
16 | 57:36.33 | 4:13.55 | 259233 | 278262
17 | 61:50.13 | 3:41.20 | 278263 | 294857
18 | 65:31.33 | 3:04.00 | 294858 | 308657
19 | 68:35.33 | 3:49.55 | 308658 | 325887
20 | 72:25.13 | 4:55.50 | 325888 | 348062


范围状态及错误

已选择范围

文件名 F:\Emule\New Release\Ultimate Classical Piano\Various - Ultimate Piano Classical CD1.wav

峰值电平 100.0 %
范围质量 100.0 %
复制 CRC 0BDD84B6
复制成功

没有错误发生


AccurateRip 概要

音轨 1 数据库中未见
音轨 2 数据库中未见
音轨 3 数据库中未见
音轨 4 数据库中未见
音轨 5 数据库中未见
音轨 6 数据库中未见
音轨 7 数据库中未见
音轨 8 数据库中未见
音轨 9 数据库中未见
音轨 10 数据库中未见
音轨 11 数据库中未见
音轨 12 数据库中未见
音轨 13 数据库中未见
音轨 14 数据库中未见
音轨 15 数据库中未见
音轨 16 数据库中未见
音轨 17 数据库中未见
音轨 18 数据库中未见
音轨 19 数据库中未见
音轨 20 数据库中未见

没有任何音轨出现在 AccurateRip 数据库中

状态报告结尾


CD2---------------------------------CD2

Exact Audio Copy V0.99 prebeta 4 from 23. January 2008

EAC 抓取日志文件从13. 九月 2008, 18:38

Various / Ultimate Classical Piano CD2

使用驱动器 :PIONEER DVD-RW DVR-112 Adapter: 3 ID: 0

读取模式 : 保护
使用精确流 : 是
废除音频缓冲 : 是
使用 C2 指针 : 否

读取偏移校正 : 48
读取 Lead-In 和 Lead-Out : 是
用静音填充抓取中丢失偏移的采样 : 是
去除首尾静音块 : 否
在 CRC 计算中使用了空样本 : 是
已用接口 : Win NT 及 2000 本地 Win32 接口

所用输出格式 : 用户定义的编码器
已选比特率 : 1024 kBit/s
质量 : 高
添加 ID3 标签 : 否
命令行压缩器 : C:\Program Files\Exact Audio Copy\FLAC\FLAC.EXE
附加命令行参数 : -6 -V -T "ARTIST=%a" -T "TITLE=%t" -T "ALBUM=%g" -T "DATE=%y" -T "TRACKNUMBER=%n" -T "GENRE=%m" -T "COMMENT=%e" %s -o %d


被抓轨 CD 的 TOC

音轨 | 开始 | 长度 | 起始扇区 | 结尾扇区
--------------------------------------------------
1 | 0:00.33 | 5:19.72 | 33 | 24029
2 | 5:20.30 | 1:53.00 | 24030 | 32504
3 | 7:13.30 | 4:40.20 | 32505 | 53524
4 | 11:53.50 | 2:59.55 | 53525 | 67004
5 | 14:53.30 | 5:37.00 | 67005 | 92279
6 | 20:30.30 | 1:45.00 | 92280 | 100154
7 | 22:15.30 | 3:13.20 | 100155 | 114649
8 | 25:28.50 | 2:16.55 | 114650 | 124904
9 | 27:45.30 | 4:07.00 | 124905 | 143429
10 | 31:52.30 | 2:52.00 | 143430 | 156329
11 | 34:44.30 | 3:35.20 | 156330 | 172474
12 | 38:19.50 | 3:39.55 | 172475 | 188954
13 | 41:59.30 | 3:57.00 | 188955 | 206729
14 | 45:56.30 | 4:40.00 | 206730 | 227729
15 | 50:36.30 | 6:10.00 | 227730 | 255479
16 | 56:46.30 | 3:34.00 | 255480 | 271529
17 | 60:20.30 | 1:51.00 | 271530 | 279854
18 | 62:11.30 | 5:06.00 | 279855 | 302804
19 | 67:17.30 | 2:33.20 | 302805 | 314299
20 | 69:50.50 | 4:37.45 | 314300 | 335119


范围状态及错误

已选择范围

文件名 F:\Emule\New Release\Ultimate Classical Piano\Various - Ultimate Classical Piano CD2.wav

峰值电平 98.4 %
范围质量 99.9 %
复制 CRC AF4FC789
复制成功

没有错误发生


AccurateRip 概要

音轨 1 数据库中未见
音轨 2 数据库中未见
音轨 3 数据库中未见
音轨 4 数据库中未见
音轨 5 数据库中未见
音轨 6 数据库中未见
音轨 7 数据库中未见
音轨 8 数据库中未见
音轨 9 数据库中未见
音轨 10 数据库中未见
音轨 11 数据库中未见
音轨 12 数据库中未见
音轨 13 数据库中未见
音轨 14 数据库中未见
音轨 15 数据库中未见
音轨 16 数据库中未见
音轨 17 数据库中未见
音轨 18 数据库中未见
音轨 19 数据库中未见
音轨 20 数据库中未见

没有任何音轨出现在 AccurateRip 数据库中

状态报告结尾


CD3---------------------------------CD3

Exact Audio Copy V0.99 prebeta 4 from 23. January 2008

EAC 抓取日志文件从14. 九月 2008, 13:36

Various / Ultimate Classical Piano CD3

使用驱动器 :PIONEER DVD-RW DVR-112 Adapter: 3 ID: 0

读取模式 : 保护
使用精确流 : 是
废除音频缓冲 : 是
使用 C2 指针 : 否

读取偏移校正 : 48
读取 Lead-In 和 Lead-Out : 是
用静音填充抓取中丢失偏移的采样 : 是
去除首尾静音块 : 否
在 CRC 计算中使用了空样本 : 是
已用接口 : Win NT 及 2000 本地 Win32 接口

所用输出格式 : 用户定义的编码器
已选比特率 : 1024 kBit/s
质量 : 高
添加 ID3 标签 : 否
命令行压缩器 : C:\Program Files\Exact Audio Copy\FLAC\FLAC.EXE
附加命令行参数 : -6 -V -T "ARTIST=%a" -T "TITLE=%t" -T "ALBUM=%g" -T "DATE=%y" -T "TRACKNUMBER=%n" -T "GENRE=%m" -T "COMMENT=%e" %s -o %d


被抓轨 CD 的 TOC

音轨 | 开始 | 长度 | 起始扇区 | 结尾扇区
--------------------------------------------------
1 | 0:00.33 | 4:55.72 | 33 | 22229
2 | 4:56.30 | 3:34.00 | 22230 | 38279
3 | 8:30.30 | 3:52.00 | 38280 | 55679
4 | 12:22.30 | 3:57.00 | 55680 | 73454
5 | 16:19.30 | 4:24.48 | 73455 | 93302
6 | 20:44.03 | 6:37.27 | 93303 | 123104
7 | 27:21.30 | 2:13.00 | 123105 | 133079
8 | 29:34.30 | 2:58.00 | 133080 | 146429
9 | 32:32.30 | 2:33.00 | 146430 | 157904
10 | 35:05.30 | 4:22.00 | 157905 | 177554
11 | 39:27.30 | 4:57.20 | 177555 | 199849
12 | 44:24.50 | 2:18.55 | 199850 | 210254
13 | 46:43.30 | 4:17.45 | 210255 | 229574
14 | 51:01.00 | 2:50.50 | 229575 | 242374
15 | 53:51.50 | 3:21.55 | 242375 | 257504
16 | 57:13.30 | 1:14.20 | 257505 | 263074
17 | 58:27.50 | 6:10.00 | 263075 | 290824
18 | 64:37.50 | 4:50.55 | 290825 | 312629
19 | 69:28.30 | 2:46.00 | 312630 | 325079
20 | 72:14.30 | 5:11.05 | 325080 | 348409


范围状态及错误

已选择范围

文件名 F:\Emule\New Release\Ultimate Classical Piano\Various - Ultimate Classical Piano CD3.wav

峰值电平 100.0 %
范围质量 100.0 %
复制 CRC 6C71EA68
复制成功

没有错误发生


AccurateRip 概要

音轨 1 数据库中未见
音轨 2 数据库中未见
音轨 3 数据库中未见
音轨 4 数据库中未见
音轨 5 数据库中未见
音轨 6 数据库中未见
音轨 7 数据库中未见
音轨 8 数据库中未见
音轨 9 数据库中未见
音轨 10 数据库中未见
音轨 11 数据库中未见
音轨 12 数据库中未见
音轨 13 数据库中未见
音轨 14 数据库中未见
音轨 15 数据库中未见
音轨 16 数据库中未见
音轨 17 数据库中未见
音轨 18 数据库中未见
音轨 19 数据库中未见
音轨 20 数据库中未见

没有任何音轨出现在 AccurateRip 数据库中

状态报告结尾


CD4---------------------------------CD4

Exact Audio Copy V0.99 prebeta 4 from 23. January 2008

EAC 抓取日志文件从14. 九月 2008, 14:11

Various / Ultimate Classical Piano CD4

使用驱动器 :PIONEER DVD-RW DVR-112 Adapter: 3 ID: 0

读取模式 : 保护
使用精确流 : 是
废除音频缓冲 : 是
使用 C2 指针 : 否

读取偏移校正 : 48
读取 Lead-In 和 Lead-Out : 是
用静音填充抓取中丢失偏移的采样 : 是
去除首尾静音块 : 否
在 CRC 计算中使用了空样本 : 是
已用接口 : Win NT 及 2000 本地 Win32 接口

所用输出格式 : 用户定义的编码器
已选比特率 : 1024 kBit/s
质量 : 高
添加 ID3 标签 : 否
命令行压缩器 : C:\Program Files\Exact Audio Copy\FLAC\FLAC.EXE
附加命令行参数 : -6 -V -T "ARTIST=%a" -T "TITLE=%t" -T "ALBUM=%g" -T "DATE=%y" -T "TRACKNUMBER=%n" -T "GENRE=%m" -T "COMMENT=%e" %s -o %d


被抓轨 CD 的 TOC

音轨 | 开始 | 长度 | 起始扇区 | 结尾扇区
--------------------------------------------------
1 | 0:00.33 | 6:10.72 | 33 | 27854
2 | 6:11.30 | 4:34.00 | 27855 | 48404
3 | 10:45.30 | 3:32.00 | 48405 | 64304
4 | 14:17.30 | 3:29.48 | 64305 | 80027
5 | 17:47.03 | 2:06.27 | 80028 | 89504
6 | 19:53.30 | 1:57.00 | 89505 | 98279
7 | 21:50.30 | 3:16.00 | 98280 | 112979
8 | 25:06.30 | 2:20.20 | 112980 | 123499
9 | 27:26.50 | 2:34.55 | 123500 | 135104
10 | 30:01.30 | 4:05.00 | 135105 | 153479
11 | 34:06.30 | 2:49.20 | 153480 | 166174
12 | 36:55.50 | 4:21.55 | 166175 | 185804
13 | 41:17.30 | 4:40.00 | 185805 | 206804
14 | 45:57.30 | 6:38.00 | 206805 | 236654
15 | 52:35.30 | 3:49.48 | 236655 | 253877
16 | 56:25.03 | 1:22.27 | 253878 | 260054
17 | 57:47.30 | 9:06.00 | 260055 | 301004
18 | 66:53.30 | 0:54.20 | 301005 | 305074
19 | 67:47.50 | 2:14.55 | 305075 | 315179
20 | 70:02.30 | 6:21.00 | 315180 | 343754


范围状态及错误

已选择范围

文件名 F:\Emule\New Release\Ultimate Classical Piano\Various - Ultimate Classical Piano CD4.wav

峰值电平 99.7 %
范围质量 100.0 %
复制 CRC E2B21B7B
复制成功

没有错误发生


AccurateRip 概要

音轨 1 数据库中未见
音轨 2 数据库中未见
音轨 3 数据库中未见
音轨 4 数据库中未见
音轨 5 数据库中未见
音轨 6 数据库中未见
音轨 7 数据库中未见
音轨 8 数据库中未见
音轨 9 数据库中未见
音轨 10 数据库中未见
音轨 11 数据库中未见
音轨 12 数据库中未见
音轨 13 数据库中未见
音轨 14 数据库中未见
音轨 15 数据库中未见
音轨 16 数据库中未见
音轨 17 数据库中未见
音轨 18 数据库中未见
音轨 19 数据库中未见
音轨 20 数据库中未见

没有任何音轨出现在 AccurateRip 数据库中

状态报告结尾


CD5---------------------------------CD5

Exact Audio Copy V0.99 prebeta 4 from 23. January 2008

EAC 抓取日志文件从14. 九月 2008, 14:50

Various / Ultimate Classical Piano CD5

使用驱动器 :PIONEER DVD-RW DVR-112 Adapter: 3 ID: 0

读取模式 : 保护
使用精确流 : 是
废除音频缓冲 : 是
使用 C2 指针 : 否

读取偏移校正 : 48
读取 Lead-In 和 Lead-Out : 是
用静音填充抓取中丢失偏移的采样 : 是
去除首尾静音块 : 否
在 CRC 计算中使用了空样本 : 是
已用接口 : Win NT 及 2000 本地 Win32 接口

所用输出格式 : 用户定义的编码器
已选比特率 : 1024 kBit/s
质量 : 高
添加 ID3 标签 : 否
命令行压缩器 : C:\Program Files\Exact Audio Copy\FLAC\FLAC.EXE
附加命令行参数 : -6 -V -T "ARTIST=%a" -T "TITLE=%t" -T "ALBUM=%g" -T "DATE=%y" -T "TRACKNUMBER=%n" -T "GENRE=%m" -T "COMMENT=%e" %s -o %d


被抓轨 CD 的 TOC

音轨 | 开始 | 长度 | 起始扇区 | 结尾扇区
--------------------------------------------------
1 | 0:00.33 | 3:02.72 | 33 | 13754
2 | 3:03.30 | 5:15.00 | 13755 | 37379
3 | 8:18.30 | 5:38.00 | 37380 | 62729
4 | 13:56.30 | 4:27.00 | 62730 | 82754
5 | 18:23.30 | 4:58.48 | 82755 | 105152
6 | 23:22.03 | 1:25.47 | 105153 | 111574
7 | 24:47.50 | 4:41.00 | 111575 | 132649
8 | 29:28.50 | 3:44.55 | 132650 | 149504
9 | 33:13.30 | 4:27.00 | 149505 | 169529
10 | 37:40.30 | 2:31.48 | 169530 | 180902
11 | 40:12.03 | 4:19.27 | 180903 | 200354
12 | 44:31.30 | 5:56.00 | 200355 | 227054
13 | 50:27.30 | 2:09.00 | 227055 | 236729
14 | 52:36.30 | 3:55.00 | 236730 | 254354
15 | 56:31.30 | 4:19.00 | 254355 | 273779
16 | 60:50.30 | 3:11.00 | 273780 | 288104
17 | 64:01.30 | 1:35.00 | 288105 | 295229
18 | 65:36.30 | 1:08.00 | 295230 | 300329
19 | 66:44.30 | 6:59.00 | 300330 | 331754
20 | 73:43.30 | 2:11.20 | 331755 | 341599


范围状态及错误

已选择范围

文件名 F:\Emule\New Release\Ultimate Classical Piano\Various - Ultimate Classical Piano CD5.wav

峰值电平 100.0 %
范围质量 100.0 %
复制 CRC 6F3D6362
复制成功

没有错误发生


AccurateRip 概要

音轨 1 数据库中未见
音轨 2 数据库中未见
音轨 3 数据库中未见
音轨 4 数据库中未见
音轨 5 数据库中未见
音轨 6 数据库中未见
音轨 7 数据库中未见
音轨 8 数据库中未见
音轨 9 数据库中未见
音轨 10 数据库中未见
音轨 11 数据库中未见
音轨 12 数据库中未见
音轨 13 数据库中未见
音轨 14 数据库中未见
音轨 15 数据库中未见
音轨 16 数据库中未见
音轨 17 数据库中未见
音轨 18 数据库中未见
音轨 19 数据库中未见
音轨 20 数据库中未见

没有任何音轨出现在 AccurateRip 数据库中

状态报告结尾



专辑曲目

CD1. Ultimate Piano Concertos 1:
极致 - 著名钢琴协奏曲CD1:


Peter Ilyich Tchaikovsky: Piano Concerto No.1 in B flat minor, Op.23
柴科夫斯基:降B小调第一钢琴协奏曲,Op.23
01. 1. Allegro non troppo e molto maestoso - Allegro con spirito
02. 2. Andantino semplice - Prestissimo - Tempo I
03. 3. Allegro con fuoco
- Victoria Postnikova (piano) / Wiener Symphoniker / Gennadi Rozhdestvensky (conductor) / DDD 1982
- 钢琴演奏:波斯特尼科娃 - 维也纳交响乐团 - 指挥:罗杰斯特文斯基

Sergey Vasil'yevich Rachmaninov: Piano Concerto No.2 in C minor, Op.18
拉赫玛尼诺夫:C小调第二钢琴协奏曲,Op.18
04. 1. Moderato
05. 2. Adagio sostenuto
06. 3. Allegro scherzando
- Cristina Ortiz (piano) / Royal Philharmonic Orchestra / Moshe Atzmon (conductor) / DDD 1984
- 钢琴演奏:克里斯蒂娜·奥提兹 - 皇家爱乐乐团 - 指挥:阿兹蒙

CD2. Ultimate Piano Concertos 2:
极致 - 著名钢琴协奏曲CD2:


Edvard Grieg: Piano Concerto in A minor, Op.16
格里格:A小调钢琴协奏曲,Op.16
01. 1. Allegro molto moderato
02. 2. Adagio
03. 3. Allegro moderato molto e marcato - Quasi presto - Andante maestoso
- Jorge Bolet (piano) / Radio-Symphonie-Orchester Berlin / Riccardo Chailly (conductor) / DDD 1985
- 钢琴演奏:博列特 - 柏林广播交响乐团 - 指挥:夏伊

04. Felix Mendelssohn: Rondo capriccioso, Op.14
门德尔松:变幻无常的回旋曲,Op.14
- Jorge Bolet (piano) / DDD 1985
- 钢琴演奏:博列特

Robert Schumann: Piano Concerto in A minor, Op.54
舒曼:A小调钢琴协奏曲,Op.54
05. 1. Allegro affettuoso
06. 2. Intermezzo (Andantino grazioso)
07. 3. Allegro vivace
- Jorge Bolet (piano) / Radio-Symphonie-Orchester Berlin / Riccardo Chailly (conductor) / DDD 1985
- 钢琴演奏:博列特 - 柏林广播交响乐团 - 指挥:夏伊

CD3. Ultimate Piano Concertos 3:
极致 - 著名钢琴协奏曲CD3:


Ludwig van Beethoven: Piano Concerto No.4 in G, Op.58
贝多芬:G大调第四钢琴协奏曲,Op.58
01. 1. Allegro moderato
02. 2. Andante con moto
03. 3. Rondo (Vivace)

Ludwig van Beethoven: Piano Concerto No.5 in E flat major Op.73 -"Emperor"
贝多芬:降E大调第五钢琴协奏曲,Op.73(皇帝)
04. 1. Allegro
05. 2. Adagio un poco mosso
06. 3. Rondo (Allegro)

- Sir Clifford Curzon (piano) / Wiener Philharmoniker / Hans Knappertsbusch (conductor) / ADD Mono 1954 (Op.58), ADD Stereo 1957 (Op.73)
- 钢琴演奏:柯曾 - 维也纳爱乐乐团 - 指挥:克纳佩茨布施

CD4. Ultimate Piano Concertos 4:
极致 - 著名钢琴协奏曲CD4:


Wolfgang Amadeus Mozart: Piano Concerto No.21 in C, K.467
莫扎特:C大调第二十一号钢琴协奏曲,K.467
01. 1. Allegro maestoso
02. 2. Andante
03. 3. Allegro vivace assai

Wolfgang Amadeus Mozart: Piano Concerto No.25 in C, K.503
莫扎特:C大调第二十五号钢琴协奏曲,K.503
04. 1. Allegro maestoso
05. 2. Andante
06. 3. Allegretto

- Stephen Kovacevich (piano) / London Symphony Orchestra / Sir Colin Davis (conductor) / ADD 1972
- 钢琴演奏:科瓦切维奇 - 伦敦交响乐团 - 指挥:科林·戴维斯

CD5. Ultimate Piano Concertos 5:
极致 - 著名钢琴协奏曲CD5:


Frédéric Chopin: Piano Concerto No.1 in E minor, Op.11
肖邦:E小调第一钢琴协奏曲,Op.11
01. 1. Allegro maestoso
02. 2. Romance (Larghetto)
03. 3i. Rondo (Vivace)

Frédéric Chopin: Piano Concerto No.2 in F minor, Op.21
肖邦:F小调第二钢琴协奏曲,Op.21
04. 1. Maestoso
05. 2. Larghetto
06. 3. Allegro vivace

- Claudio Arrau (piano) / London Philharmonic Orchestra / Eliahu Inbal (conductor) / ADD 1970
- 钢琴演奏:阿劳 - 伦敦爱乐乐团 - 指挥:依里亚胡·殷巴尔

正在读取……

这里是其它用户补充的资源(我也要补充):

暂无补充资源
正在加载,请稍等...

点击查看所有146网友评论

 

(?) [公告]留口水、评论相关规则 | [活动]每日签到 轻松领取电驴经验

    小贴士:
  1. 类似“顶”、“沙发”之类没有营养的文字,对勤劳贡献的楼主来说是令人沮丧的反馈信息。
  2. 提问之前请再仔细看一遍楼主的说明,或许是您遗漏了。
  3. 勿催片。请相信驴友们对分享是富有激情的,如果确有更新版本,您一定能搜索到。
  4. 请勿到处挖坑绊人、招贴广告。既占空间让人厌烦,又没人会搭理,于人于己都无利。
  5. 如果您发现自己的评论不见了,请参考以上4条。