v

您的位置:VeryCD综艺纪录片

综艺资源事务区


《神奇的宇宙》(Solarsoul Deep Space)全一集[MP4]

  • 状态: 精华资源
  • 摘要:
    发行时间2010年
    地区美国
    语言英语
  • 时间: 2011/02/17 11:07:08 发布 | 2011/02/18 08:31:19 更新
  • 分类: 综艺  纪录片 

桐柏

精华资源: 1

全部资源: 2

相关: 分享到新浪微博   转播到腾讯微博   分享到开心网   分享到人人   分享到QQ空间   订阅本资源RSS更新   美味书签  subtitle
该内容尚未提供权利证明,无法提供下载。
中文名神奇的宇宙
英文名Solarsoul Deep Space
资源格式MP4
版本全一集
发行时间2010年
制作发行Solarsoul
地区美国
语言英语
简介

IPB Image

【类型】: 纪录片
【影片长度】: 29m
【集数】:全1集
【字幕】: 暂无
【服务器】: 随机
【分享时间】:全天

【内容介绍】:
We will visit the most remote corners of the universe, we see the birth and death of stars, the birth of our solar system from the dust cloud. Visit the surface of Mars flyby of Saturn's rings around and met the dawn. Flyby of the giant nebulae of the universe. Let's look at the very edge of the universe about 13 billion light years away, that's where the orbital telescope Hubble discovered the most distant galaxies at the moment. This is a must see, words such beauty is hard to convey

我们将参观宇宙中最偏远的角落,我们看到了恒星的诞生和死亡,我们从尘埃云太阳系诞生。访问火星土星环的周围飞掠表面,并会见了曙光。飞越了巨大的宇宙星云。让我们看看在大约13亿光年远的宇宙的边缘,这正是哈勃望远镜的轨道,目前发现的最遥远的星系。这是一个必须看到,这种美文字难以表达。
IPB Image
IPB Image



代码
Video #1
    ID : 1
    Format : MPEG-4 Visual
    Format profile : Simple@L3
    Format settings, BVOP : No
    Format settings, QPel : No
    Format settings, GMC : No warppoints
    Format settings, Matrix : Default (H.263)
    Codec ID : 20
    Duration : 28mn 59s
    Bit rate mode : Variable
    Bit rate : 4 405 Kbps
    Maximum bit rate : 14.3 Mbps
    Width : 1 280 pixels
    Height : 720 pixels
    Display aspect ratio : 16:9
    Frame rate mode : Constant
    Frame rate : 25.000 fps
    Color space : YUV
    Chroma subsampling : 4:2:0
    Bit depth : 8 bits
    Scan type : Progressive
    Compression mode : Lossy
    Bits/(Pixel*Frame) : 0.191
    Stream size : 913 MiB (96%)
    Language : English
    Encoded date : UTC 2010-11-07 18:41:29
    Tagged date : UTC 2010-11-07 18:41:29
  Audio #2
    ID : 2
    Format : AAC
    Format/Info : Advanced Audio Codec
    Format profile : LC
    Codec ID : 40
    Duration : 28mn 59s
    Bit rate mode : Variable
    Bit rate : 192 Kbps
    Maximum bit rate : 198 Kbps
    Channel(s) : 2 channels
    Channel positions : Front: L R
    Sampling rate : 48.0 KHz
    Compression mode : Lossy
    Stream size : 39.8 MiB (4%)
    Language : English
    Encoded date : UTC 2010-11-07 18:41:29
    Tagged date : UTC 2010-11-07 18:41:29




第一次发源,小水管,希望下载完的友友帮忙分流。

正在读取……

这里是其它用户补充的资源(我也要补充):

暂无补充资源
正在加载,请稍等...

点击查看所有31网友评论

 

(?) [公告]留口水、评论相关规则 | [活动]每日签到 轻松领取电驴经验

    小贴士:
  1. 类似“顶”、“沙发”之类没有营养的文字,对勤劳贡献的楼主来说是令人沮丧的反馈信息。
  2. 提问之前请再仔细看一遍楼主的说明,或许是您遗漏了。
  3. 勿催片。请相信驴友们对分享是富有激情的,如果确有更新版本,您一定能搜索到。
  4. 请勿到处挖坑绊人、招贴广告。既占空间让人厌烦,又没人会搭理,于人于己都无利。
  5. 如果您发现自己的评论不见了,请参考以上4条。