v

您的位置:VeryCD综艺纪录片

综艺资源事务区


《韦斯特莱克娱乐:好莱坞丑闻:27号女孩》(Westlake Entertainment: Girl 27)全一集[DVDRip]

  • 状态: 精华资源
  • 摘要:
    发行时间2007年
    地区美国
    语言英语
  • 时间: 2011/02/16 01:29:36 发布 | 2011/02/16 15:20:45 更新
  • 分类: 综艺  纪录片 

life_is_good

精华资源: 6571

全部资源: 7301

相关: 分享到新浪微博   转播到腾讯微博   分享到开心网   分享到人人   分享到QQ空间   订阅本资源RSS更新   美味书签  subtitle
该内容尚未提供权利证明,无法提供下载。
中文名韦斯特莱克娱乐:好莱坞丑闻:27号女孩
英文名Westlake Entertainment: Girl 27
资源格式DVDRip
版本全一集
发行时间2007年
地区美国
语言英语
简介

IPB Image

◎译  名 27号女孩
◎片  名 Girl 27
◎年  代 2007
◎国  家 美国
◎类  别 纪录片
◎语  言 英语
◎字  幕 N/A
◎IMDB评分 6.5/10 (258 votes)
◎IMDB链接 http://www.imdb.com/title/tt0912586
◎文件格式 XviD + AC3
◎视频尺寸 640 x 352
◎文件大小 1CD 49 x 15MB
◎片  长 79 Mins
◎导  演 David Stenn
◎主  演 Baby Peggy ... Herself (as Peggy Montgomery)
      Richard Bann ... Himself
      Kelly Brown ... Himself
      Ned Comstock ... Himself
      Joan Crawford ... Herself (archive footage)
      Patricia Douglas ... Herself
      Buron Fitts ... Himself (archive footage)
      Clark Gable ... Himself (archive footage)
      Jean Harlow ... Herself (archive footage)
      Judy Lewis ... Herself
      E.J. Mannix ... Himself (archive footage)
      Louis B. Mayer ... Himself (archive footage)
      Judd D. Minter ... Himself (as Judd Minter)
      Patti Minter ... Herself
      Norma Shearer ... Herself (archive footage)
      Eloise Spann ... (archive footage)
      David Stenn ... Himself
      Michael Taitelman ... Himself
      Jack Terry ... Himself
      Greta Van Susteren ... Herself
      Duchess of Windsor ... Herself (archive footage) (uncredited)
      Duke of Windsor ... Himself (archive footage) (uncredited)
      
◎简  介 (转自bugz@Mtime)

  07年Sundance电影节提名并推荐的关于MGM性丑闻的一部纪录片。

  基于导演David Stenn的纪实小说《It's all happen in one night.... at MGM》,展示了好莱坞在二战前就已经出现的潜规则。MGM米高密公司在1937年的一次宴会上,招徕了一群伴舞,这些女孩没有姓名,只有编号,很多都还未成年,不少只有14岁,而在27号女孩Patricia,17岁的处女被下药后,强奸了。而在这个制片公司就是一切的小城市,目击证人,医生,律师都可以被买通,甚至连受害者Patricia Douglas的母亲都在利诱下背叛了自己的女儿。法庭辩论成了对Pat.羞辱大会,施暴人无罪释放,媒体都发表不利Pat.的报道,Pat.甚至试图自杀。而Pat.又再次上诉联邦法院,但她的辩护律师却3次缺席,导致案件流产,1937年的这桩强奸案最终被刻意的尘封几十年,施暴人逍遥法外,目击证人 (当时的泊车的青年)得到MGM的高薪职务,Pat.的母亲得到金钱补偿。
  
  同样的事件,甚至发生在很多著名女影星身上,很多人都选择沉默,因为在竞争激烈的Hollywood好莱坞,漂亮和才艺并不能保证成功。而在MGM公司这样一个男权控制下垄断企业,女性就成了牺牲品,影视公司可以操控一切,甚至超越法律和正义。
  
  David Stenn用自己的努力,找到了Patricia并获得了她的信任,在她过世之前,采访了她,固执的Patricia终于在摄像机前将自己的经历说了出来 (她亲身女儿都不知道的秘密),案件相关人员的采访,将整个案件的原样重现在众人面前,而主流媒体仍有意无意的试图掩盖真相,试图减小影响。
  
  纪录片拍摄得很专业,唯一一点,我认为是缺点的是导演本人过多的介入。

IPB Image

代码
   CoaX!<CPH>

Team FiCO <Final Coalition> 2k8 Presents:
                                      

Girl.27.2007.DVDRip.XviD-FiCO

http://www.imdb.com/title/tt0912586/
Subtitles: None
Date: 2010.12

Director: David Stenn
Genre: Documentary
Plot: The reclusive Patricia Douglas comes out of hiding to discuss the 1937
MGM scandal, in which the powerful film studio tricked her and over 100 other
underage girls into attending a stag party, where she was raped.

Cast
Credited cast:
Baby Peggy      Baby Peggy      ...    
Herself (as Peggy Montgomery)
Richard Bann    Richard Bann    ...    
Himself
Kelly Brown     Kelly Brown     ...    
Himself
Ned Comstock    Ned Comstock    ...    
Himself
Joan Crawford   Joan Crawford   ...    
Herself (archive footage)
Patricia Douglas        Patricia Douglas        ...    
Herself
Buron Fitts     Buron Fitts     ...    
Himself (archive footage)
Clark Gable     Clark Gable     ...    
Himself (archive footage)
Jean Harlow     Jean Harlow     ...    
Herself (archive footage)
Judy Lewis      Judy Lewis      ...    
Herself
E.J. Mannix     E.J. Mannix     ...    
Himself (archive footage)
Louis B. Mayer  Louis B. Mayer  ...    
Himself (archive footage)
Judd D. Minter  Judd D. Minter  ...    
Himself (as Judd Minter)
Patti Minter    Patti Minter    ...    
Herself
Norma Shearer   Norma Shearer   ...    
Herself (archive footage)
Full cast and crew ?

Stats:
General
Format                           : AVI
Format/Info                      : Audio Video Interleave
File size                        : 697 MiB
Duration                         : 1h 19mn
Overall bit rate                 : 1 222 Kbps
Writing application              : VirtualDubMod 1.5.10.2 (build 2542/release)
Writing library                  : VirtualDubMod build 2542/release

Video
ID                               : 0
Format                           : MPEG-4 Visual
Format profile                   : Advanced Simple@L5
Format settings, BVOP            : Yes
Format settings, QPel            : No
Format settings, GMC             : No warppoints
Format settings, Matrix          : Default (H.263)
Codec ID                         : XVID
Codec ID/Hint                    : XviD
Duration                         : 1h 19mn
Bit rate                         : 1 020 Kbps
Width                            : 640 pixels
Height                           : 352 pixels
Display aspect ratio             : 16:9
Frame rate                       : 23.976 fps
Resolution                       : 8 bits
Colorimetry                      : 4:2:0
Scan type                        : Progressive
Bits/(Pixel*Frame)               : 0.189
Stream size                      : 582 MiB (84%)
Writing library                  : XviD 1.2.1 (UTC 2008-12-04)

Audio
ID                               : 1
Format                           : AC-3
Format/Info                      : Audio Coding 3
Format_Settings_ModeExtension    : CM (complete main)
Codec ID                         : 2000
Duration                         : 1h 19mn
Bit rate mode                    : Constant
Bit rate                         : 192 Kbps
Channel(s)                       : 2 channels
Channel positions                : Front: L R
Sampling rate                    : 48.0 KHz
Video delay                      : 3ms
Stream size                      : 109 MiB (16%)
Alignment                        : Split accross interleaves
Interleave, duration             : 42 ms (1.00 video frame)
Interleave, preload duration     : 500 ms




Release notes:
enjoy!      


              
                                                
                                                
            Greetz from Team FiCO:    

                                                        
    BLooDWeiSeR,CULTXviD,SiCK,DoNE,LAP,TH30R1STS  
                                                  
    WinBeta, DvF, WASTE, BERC, KALEVALA, Jiggly    
                                                                                                              
    
        
                        
    you know where to find us...  

NFO By: CoaXCable/CoolPHat <#CPH>  

正在读取……

这里是其它用户补充的资源(我也要补充):

暂无补充资源
该资源还没有任何评论

该资源评论已被关闭