v

您的位置:VeryCD动漫电视动画

动漫资源事务区


《这是告别吗,查理布朗?》(Is This Goodbye, Charlie Brown?)[DVDRip]

  • 状态: 精华资源
  • 摘要:
    发行时间1983年
    语言英语
  • 时间: 2011/02/12 11:59:20 发布 | 2011/02/13 00:41:05 更新
  • 分类: 动漫  电视动画 

life_is_good

精华资源: 6571

全部资源: 7301

相关: 分享到新浪微博   转播到腾讯微博   分享到开心网   分享到人人   分享到QQ空间   订阅本资源RSS更新   美味书签  subtitle
该内容尚未提供权利证明,无法提供下载。
中文名这是告别吗,查理布朗?
英文名Is This Goodbye, Charlie Brown?
资源格式DVDRip
发行时间1983年
导演Phil Roman
地区美国
语言英语
简介

IPB Image

【首播时间】1983年
【字幕制作】暂无


【内容介绍】

Linus有一个令人震惊的坏消息,他的父亲找了一份新的工作,一家人不得不搬家。Charlie Brown和他的小伙伴们为此准备了告别活动。(文/life_is_good@YDY)

Linus has to break devastating news, his father has a new job and has to relocate his family. Charlie Brown and the gang make their goodbyes and prepare for Linus and Lucy's departure.

【STAFF】

导演:Phil Roman

【CAST】

Brad Kesten ... Charlie Brown (voz)
Jeremy Schoenberg ... Linus van Pelt (voz)
Angela Lee ... Lucy van Pelt (voz)
Michael Dockery ... Marcie (voz)
Stacy Heather Tolkin ... Sally Brown (voz)
Victoria Vargas ... Patricia "Peppermint Patty" Reichardt (voz)
Kevin Brando ... Schroeder / Franklin (voz)
Bill Melendez ... Snoopy (voz)

引用
Is.This.Goodbye.Charlie.Brown.1983.DVDRip.XviD-SPRiNTER
http://www.imdb.com/title/tt0123119/
Subtitles: N/A

Format : AVI
Format/Info : Audio Video Interleave
File size : 174 MiB
Duration : 23mn 22s
Overall bit rate : 1 039 Kbps
Writing application : Nandub v1.0rc2
Writing library : Nandub build 1852/release

Video
ID : 0
Format : MPEG-4 Visual
Format profile : Advanced Simple@L5
Format settings, BVOP : Yes
Format settings, QPel : No
Format settings, GMC : No warppoints
Format settings, Matrix : Default (MPEG)
Codec ID : XVID
Codec ID/Hint : XviD
Duration : 23mn 22s
Bit rate : 957 Kbps
Width : 640 pixels
Height : 480 pixels
Display aspect ratio : 4:3
Frame rate : 23.976 fps
Color space : YUV
Chroma subsampling : 4:2:0
Bit depth : 8 bits
Scan type : Progressive
Bits/(Pixel*Frame) : 0.130
Stream size : 160 MiB (92%)
Writing library : XviD 1.2.1 (UTC 2008-12-04)

Audio
ID : 1
Format : MPEG Audio
Format version : Version 1
Format profile : Layer 3
Codec ID : 55
Codec ID/Hint : MP3
Duration : 23mn 22s
Bit rate mode : Variable
Bit rate : 69.9 Kbps
Minimum bit rate : 64.0 Kbps
Channel(s) : 1 channel
Sampling rate : 48.0 KHz
Stream size : 11.7 MiB (7%)
Alignment : Aligned on interleaves
Interleave, duration : 24 ms (0.58 video frame)
Interleave, preload duration : 538 ms
Writing library : LAME3.90.
Encoding settings : -m m -V 8 -q 2 -lowpass 12.7 --vbr-new -b 64

正在读取……

这里是其它用户补充的资源(我也要补充):

暂无补充资源
正在加载,请稍等...

点击查看所有8网友评论

 

(?) [公告]留口水、评论相关规则 | [活动]每日签到 轻松领取电驴经验

    小贴士:
  1. 类似“顶”、“沙发”之类没有营养的文字,对勤劳贡献的楼主来说是令人沮丧的反馈信息。
  2. 提问之前请再仔细看一遍楼主的说明,或许是您遗漏了。
  3. 勿催片。请相信驴友们对分享是富有激情的,如果确有更新版本,您一定能搜索到。
  4. 请勿到处挖坑绊人、招贴广告。既占空间让人厌烦,又没人会搭理,于人于己都无利。
  5. 如果您发现自己的评论不见了,请参考以上4条。