v

您的位置:VeryCD综艺纪录片

综艺资源事务区


《愚蠢凡人制作室:目标:火星》(Foolish Earthling Productions: Destination: Mars)全一集[DVDRip]

  • 状态: 精华资源
  • 摘要:
    发行时间2007年
    地区美国
    语言英语
  • 时间: 2011/02/11 01:05:57 发布 | 2011/02/13 08:56:24 更新
  • 分类: 综艺  纪录片 

life_is_good

精华资源: 6571

全部资源: 7301

相关: 分享到新浪微博   转播到腾讯微博   分享到开心网   分享到人人   分享到QQ空间   订阅本资源RSS更新   美味书签  subtitle
该内容尚未提供权利证明,无法提供下载。
中文名愚蠢凡人制作室:目标:火星
英文名Foolish Earthling Productions: Destination: Mars
资源格式DVDRip
版本全一集
发行时间2007年
制作发行Foolish Earthling Productions
地区美国
语言英语
简介

IPB Image

◎译  名 目标:火星
◎片  名 Destination Mars
◎年  代 2007
◎国  家 美国
◎类  别 记录
◎语  言 英语
◎字  幕 N/A
◎IMDB评分 5,0/10 5 votos
◎IMDB链接 http://www.imdb.com/title/tt1072434
◎文件格式 XviD + MP3
◎视频尺寸 640 x 464
◎文件大小 1CD 13 x 15MB
◎片  长 20 Min
◎导  演 Michael Lennick
◎主  演 Robert Godwin ... Ele mesmo
      Robert J. Sawyer ... Ele mesmo
      Richard Terrile ... Ele mesmo

◎简  介 

1964年版《鲁宾逊历险记》是一部科幻传奇片,将《鲁宾逊历险记》的荒岛冒险故事搬到太空上进行。本片的鲁宾逊是一名太空人,在外星上搁浅,只有一只猩猩陪伴。后来有另一名外星人亦被困于此,他就是"星期五"。导演拜伦赫斯金的手法流畅,而在美国死亡谷拍摄的外星球场景亦显得相当逼真。本短片为Criterion Collection发行的《鲁宾逊历险记》蓝光时包含的一段珍贵的视频短纪录片,名为《目标:火星》,主要讲述了《鲁宾逊历险记》一篇拍摄过程中的故事。

Robinson Crusoe on Mars
11 Jan 2011
Blu-Ray
1 Disc
SRP: $39.95
Criterion Store price:$31.96

Disc Features
* ...
* ...
* Destination Mars, a video featurette by filmmaker and space historian Michael Lennick detailing the science behind the film
* ...

代码
Destination.Mars.2007.DOCU.DVDRip.XviD-SPRiNTER
http://www.imdb.com/title/tt1072434/
Subtitles: N/A

Date: 2011.01
Genre: Documentary | Short

Format                           : AVI
Format/Info                      : Audio Video Interleave
File size                        : 173 MiB
Duration                         : 19mn 32s
Overall bit rate                 : 1 241 Kbps
Writing application              : Nandub v1.0rc2
Writing library                  : Nandub build 1852/release

Video
ID                               : 0
Format                           : MPEG-4 Visual
Format profile                   : Advanced Simple@L5
Format settings, BVOP            : Yes
Format settings, QPel            : No
Format settings, GMC             : No warppoints
Format settings, Matrix          : Default (MPEG)
Codec ID                         : XVID
Codec ID/Hint                    : XviD
Duration                         : 19mn 32s
Bit rate                         : 1 088 Kbps
Width                            : 640 pixels
Height                           : 464 pixels
Display aspect ratio             : 1.379
Frame rate                       : 29.970 fps
Color space                      : YUV
Chroma subsampling               : 4:2:0
Bit depth                        : 8 bits
Scan type                        : Progressive
Bits/(Pixel*Frame)               : 0.122
Stream size                      : 152 MiB (88%)
Writing library                  : XviD 1.2.1 (UTC 2008-12-04)

Audio
ID                               : 1
Format                           : MPEG Audio
Format version                   : Version 1
Format profile                   : Layer 3
Mode                             : Joint stereo
Mode extension                   : MS Stereo
Codec ID                         : 55
Codec ID/Hint                    : MP3
Duration                         : 19mn 32s
Bit rate mode                    : Variable
Bit rate                         : 139 Kbps
Minimum bit rate                 : 128 Kbps
Channel(s)                       : 2 channels
Sampling rate                    : 48.0 KHz
Stream size                      : 19.5 MiB (11%)
Alignment                        : Aligned on interleaves
Interleave, duration             : 24 ms (0.72 video frame)
Interleave, preload dur

正在读取……

这里是其它用户补充的资源(我也要补充):

暂无补充资源
正在加载,请稍等...

点击查看所有13网友评论

 

(?) [公告]留口水、评论相关规则 | [活动]每日签到 轻松领取电驴经验

    小贴士:
  1. 类似“顶”、“沙发”之类没有营养的文字,对勤劳贡献的楼主来说是令人沮丧的反馈信息。
  2. 提问之前请再仔细看一遍楼主的说明,或许是您遗漏了。
  3. 勿催片。请相信驴友们对分享是富有激情的,如果确有更新版本,您一定能搜索到。
  4. 请勿到处挖坑绊人、招贴广告。既占空间让人厌烦,又没人会搭理,于人于己都无利。
  5. 如果您发现自己的评论不见了,请参考以上4条。