v

您的位置:VeryCD综艺纪录片

综艺资源事务区


《央视高清:中国空姐》(CCTV HD: China Stewardess)全四集[720P]

  • 状态: 精华资源
  • 摘要:
    发行时间2011年01月30日
    地区美国
    语言英语
  • 时间: 2011/02/08 11:07:31 发布 | 2011/02/13 13:02:12 更新
  • 分类: 综艺  纪录片 

life_is_good

精华资源: 6571

全部资源: 7301

相关: 分享到新浪微博   转播到腾讯微博   分享到开心网   分享到人人   分享到QQ空间   订阅本资源RSS更新   美味书签  subtitle
该内容尚未提供权利证明,无法提供下载。
中文名央视高清:中国空姐
英文名CCTV HD: China Stewardess
资源格式720P
版本全四集
发行时间2011年01月30日
制作发行CCTV HD
地区美国
语言英语
简介

IPB Image

引用
【类型】: 纪录
【影片长度】: 30分钟
【集数】:共4集
【字幕】: 中文
【服务器】: 随机
【分享时间】:全天

【内容介绍】:

  反映民航空中乘务员生活的电视系列专题片《中国空姐》,将于2011 年1 月30 日、31 日在中央电视台一套播出,播出时间为22:28,每次播放2集。

  《中国空姐》是中国航空运输协会、中央电视台联合拍摄的一部反映民航空中乘务员生活的电视系列专题片,共4集,每集时长30分钟。第一集《历史记忆》,是历史传承篇,讲述中国空姐的发展历程和沧桑巨变。第二集《生命守护》,是首要职责篇,体现确保旅客生命财产和客舱安全是空姐的第一职责。第三集《爱心飞翔》,是热情服务篇,呈现空姐天使般的爱心。第四集《青春绽放》,是成长历练篇,展示空姐的理想和青春。

  专题片中推出了一系列爱岗敬业、无私奉献的先进人物,讲述了一个个生动感人的精彩故事,希望通过介绍他们和他们的故事,让社会公众更多地了解民航,拉近民航与百姓的距离,使民航更多更好地为大众出行服务。

分集介绍:
第一集是中国空姐的历史传承篇,讲述中国空姐的来历和发展程。
第二集是中国空姐的首要职责篇,讲述空姐把确保旅客生命财产和飞机安全作为首要职责。
第三集是中国空姐的热情服务篇,讲述空姐以全心全意为旅客服务为宗旨,带着爱心飞翔。
第四集是中国空姐的成长历练篇,讲述空姐背后的故事,揭示天使的翅膀是怎样锻炼成的。

【缩略图】
IPB Image

【编码参数】
代码
E:\TTG upload 2\CCTV China Stewardess PACK 720p HDTV x264-NGB\CCTV China Stewardess E01 720p HDTV x264-NGB.mkv
   General
      Complete name : E:\TTG upload 2\CCTV China Stewardess PACK 720p HDTV x264-NGB\CCTV China Stewardess E01 720p HDTV x264-NGB.mkv
      Format : Matroska
      File size : 895 MiB
      Duration : 30mn 0s
      Overall bit rate : 4 170 Kbps
      Encoded date : UTC 2011-01-31 14:25:52
      Writing application : mkvmerge v2.9.8 ('C'est le bon') built on Aug 13 2009 12:49:06
      Writing library : libebml v0.7.7 + libmatroska v0.8.1
   Video #1
      ID : 1
      Format : AVC
      Format/Info : Advanced Video Codec
      Format profile : High@L4.1
      Format settings, CABAC : Yes
      Format settings, ReFrames : 7 frames
      Muxing mode : Container profile=Unknown@4.1
      Codec ID : V_MPEG4/ISO/AVC
      Duration : 30mn 0s
      Bit rate : 3 639 Kbps
      Nominal bit rate : 3 723 Kbps
      Width : 1 280 pixels
      Height : 720 pixels
      Display aspect ratio : 16:9
      Frame rate : 25.000 fps
      Resolution : 8 bits
      Colorimetry : 4:2:0
      Scan type : Progressive
      Bits/(Pixel*Frame) : 0.158
      Stream size : 781 MiB (87%)
      Writing library : x264 core 110 r1820 fdcf2ae
      Encoding settings : cabac=1 / ref=7 / deblock=1:-3:-3 / analyse=0x3:0x133 / me=umh / subme=9 / psy=1 / psy_rd=1.00:0.00 / mixed_ref=1 / me_range=32 / chroma_me=1 / trellis=2 / 8x8dct=1 / cqm=0 / deadzone=21,11 / fast_pskip=0 / chroma_qp_offset=-4 / threads=12 / sliced_threads=0 / nr=0 / decimate=0 / interlaced=0 / constrained_intra=0 / bframes=6 / b_pyramid=2 / b_adapt=2 / b_bias=0 / direct=3 / weightb=1 / open_gop=0 / weightp=2 / keyint=250 / keyint_min=25 / scenecut=40 / intra_refresh=0 / rc_lookahead=50 / rc=2pass / mbtree=1 / bitrate=3723 / ratetol=1.0 / qcomp=0.60 / qpmin=0 / qpmax=51 / qpstep=4 / cplxblur=20.0 / qblur=0.5 / ip_ratio=1.40 / aq=1:1.00
      Language : English
   Audio #2
      ID : 2
      Format : AC-3
      Format/Info : Audio Coding 3
      Codec ID : A_AC3
      Duration : 30mn 0s
      Bit rate mode : Constant
      Bit rate : 448 Kbps
      Channel(s) : 2 channels
      Channel positions : L R
      Sampling rate : 48.0 KHz
      Video delay : 32ms
      Stream size : 96.1 MiB (11%)

正在读取……

这里是其它用户补充的资源(我也要补充):

暂无补充资源
正在加载,请稍等...

点击查看所有117网友评论

 

(?) [公告]留口水、评论相关规则 | [活动]每日签到 轻松领取电驴经验

    小贴士:
  1. 类似“顶”、“沙发”之类没有营养的文字,对勤劳贡献的楼主来说是令人沮丧的反馈信息。
  2. 提问之前请再仔细看一遍楼主的说明,或许是您遗漏了。
  3. 勿催片。请相信驴友们对分享是富有激情的,如果确有更新版本,您一定能搜索到。
  4. 请勿到处挖坑绊人、招贴广告。既占空间让人厌烦,又没人会搭理,于人于己都无利。
  5. 如果您发现自己的评论不见了,请参考以上4条。