v

您的位置:VeryCD综艺纪录片

综艺资源事务区


《时代精神运动:时代精神3:迈步向前》(The Zeitgeist Movement: Zeitgeist 3: Moving Forward)全一集/TehDiNGO+TDP小组/英语中文字幕[DVDRip]

  • 状态: 精华资源
  • 摘要:
    发行时间2011年
    地区美国
    语言英语
  • 时间: 2011/02/07 01:45:06 发布 | 2011/05/25 20:25:41 更新
  • 分类: 综艺  纪录片 

life_is_good

精华资源: 6571

全部资源: 7301

相关: 分享到新浪微博   转播到腾讯微博   分享到开心网   分享到人人   分享到QQ空间   订阅本资源RSS更新   美味书签  subtitle
该内容尚未提供权利证明,无法提供下载。
中文名时代精神运动:时代精神3:迈步向前
英文名The Zeitgeist Movement: Zeitgeist 3: Moving Forward
别名时代精神运动:时代精神:维纳斯计划
资源格式DVDRip
版本全一集/TehDiNGO+TDP小组/英语中文字幕
发行时间2011年
制作发行The Zeitgeist Movement
地区美国
语言英语
简介

IPB Image

【内容介绍】:

一个长篇纪录片,列举了当前社会经济货币支配整个世界出社会所需的过渡情况。这一主题将超越相对主义与传统思想的核心问题。

  理论一:中性社会政治或者叫做现代社会政治是研究自我与他人之间的利益共同点与相异点,从而形成的利他或利己的主观观点,进而由此观点划分利益团体,自反组成阶级社会。

  理论二:良性社会政治或者叫未来社会政治的终极意义是研究人与人,人与世界之间的共性和独立性,基于此状况而产生的利于个体独立的,所有人的良性社会【(物质前提:自动化与循环资源经济的建立)良性社会是有一群不固定的志愿者组成的推动人类科学发展的公益社会,并不强迫他人加入社会劳动而是鼓励将个人劳动的成果与社会分享。其他不固定的不参与者也可以从中得到发展成果。】

  理论三:科学影响人类这个生物群体,而社会政治影响生命个体。【长期来看,我是说自然科学对于我们的整个社会科学产生了缓慢而巨大的影响。正如马克思所说:生产关系生产关系决定分配原则,生产关系上的变动总是因为起到最终作用自然科学的发展速所引起的。而现代社会政治只不过是在研究如何分配利益,保护利益而已,无论是物质上还是精神上,进而形成了主观的束缚他人思想的一系列的理论。这些理论总是包含着人们对于自然现象的表现的主观臆想,(例:社会进化论就是典型代表,就是通过从自然世界的某些现象中提炼的关于人类社会的理论。)】

  理论四:纵观人类文明,人们总是在不断超脱自然法则。(这股超脱力量的源泉总是来源于自然科学,重来不是基于毫无物质基础的社会理论。)

  理论五(重点):现代社会政治逐渐成为了对信息社会产生莫大影响的“新宗教”.【大量人力物力投用到了维护“新宗教”的斗争当中,浪费了大量人力、资源。(例:军人等) 违背了良性社会政治的意义,必然会像王权一样被人们遗弃。】

  理论六:现代社会政治牢牢控制着个体思维模式,都不约而同的影响或抑制自然科学的发展。(“新宗教”的斗争与现代社会政治已经到了濒临崩溃的地步,因为其本身就是人类个体所臆想出来的产物。人们越是接近真理就越发觉得这个幻境濒临破灭。)

  结论:科学的进步必然会使现代社会政治所淘汰。

【中文字幕预告片】


【缩略图】
IPB Image

代码
General
Format                           : AVI
Format/Info                      : Audio Video Interleave
File size                        : 1.06 GiB
Duration                         : 2h 41mn
Overall bit rate                 : 939 Kbps
Writing application              : VirtualDubMod 1.5.10.2 (build 2540/release)
Writing library                  : VirtualDubMod build 2540/release

Video
ID                               : 0
Format                           : MPEG-4 Visual
Format profile                   : Advanced Simple@L5
Format settings, BVOP            : 1
Format settings, QPel            : No
Format settings, GMC             : No warppoints
Format settings, Matrix          : Default (H.263)
Codec ID                         : XVID
Codec ID/Hint                    : XviD
Duration                         : 2h 41mn
Bit rate                         : 799 Kbps
Width                            : 848 pixels
Height                           : 480 pixels
Display aspect ratio             : 16:9
Frame rate                       : 29.970 fps
Color space                      : YUV
Chroma subsampling               : 4:2:0
Bit depth                        : 8 bits
Scan type                        : Progressive
Compression mode                 : Lossy
Bits/(Pixel*Frame)               : 0.066
Stream size                      : 923 MiB (85%)
Writing library                  : XviD 1.2.1 (UTC 2008-12-04)

Audio
ID                               : 1
Format                           : MPEG Audio
Format version                   : Version 1
Format profile                   : Layer 3
Codec ID                         : 55
Codec ID/Hint                    : MP3
Duration                         : 2h 41mn
Bit rate mode                    : Constant
Bit rate                         : 128 Kbps
Channel(s)                       : 2 channels
Sampling rate                    : 44.1 KHz
Compression mode                 : Lossy
Stream size                      : 148 MiB (14%)
Alignment                        : Split accross interleaves
Interleave, duration             : 33 ms (1.00 video frame)
Interleave, preload duration     : 500 ms
Writing library                  : LAMELAME_MAJOR_VERSION

正在读取……

这里是其它用户补充的资源(我也要补充):

nickylu 2011/02/10 18:44:40 补充
补个英文字幕~射手网地址:http://shooter.cn/xml/sub/163/163270.xml

该内容尚未提供权利证明,无法提供下载。
正在加载,请稍等...

点击查看所有54网友评论

 

(?) [公告]留口水、评论相关规则 | [活动]每日签到 轻松领取电驴经验

    小贴士:
  1. 类似“顶”、“沙发”之类没有营养的文字,对勤劳贡献的楼主来说是令人沮丧的反馈信息。
  2. 提问之前请再仔细看一遍楼主的说明,或许是您遗漏了。
  3. 勿催片。请相信驴友们对分享是富有激情的,如果确有更新版本,您一定能搜索到。
  4. 请勿到处挖坑绊人、招贴广告。既占空间让人厌烦,又没人会搭理,于人于己都无利。
  5. 如果您发现自己的评论不见了,请参考以上4条。