v

您的位置:VeryCD综艺纪录片

综艺资源事务区


《亚洲高清台:香港行政长官发表农历新年贺辞》(ATV HD: HKSAR Chief Executive delivers Lunar New Year message)全一集[1080i]

  • 状态: 精华资源
  • 摘要:
    发行时间2011年02月02日
    地区香港
    语言粤语
  • 时间: 2011/02/04 12:46:28 发布 | 2011/02/05 09:18:35 更新
  • 分类: 综艺  纪录片 

life_is_good

精华资源: 6571

全部资源: 7301

相关: 分享到新浪微博   转播到腾讯微博   分享到开心网   分享到人人   分享到QQ空间   订阅本资源RSS更新   美味书签  subtitle
该内容尚未提供权利证明,无法提供下载。
中文名亚洲高清台:香港行政长官发表农历新年贺辞
英文名ATV HD: HKSAR Chief Executive delivers Lunar New Year message
版本全一集[1080i]
发行时间2011年02月02日
制作发行亚洲高清台
地区香港
语言粤语
简介

IPB Image

引用
转自HDC
行政长官发表农历新年贺辞(附图/短片)
*******************
  以下为行政长官曾荫权今日(二月二日)发表的农历新年贺辞全文:

  农历新年温情洋溢,大家聚首一堂,开开心心,和小朋友一起度过就更加热闹。新一年是兔年,小朋友和兔子一样精灵活泼、逗人喜爱。我希望每个家庭,在新一年每一日都充满欢乐。

  恭祝大家在兔年身体健康、笑口常开。


2011年2月2日(星期三)
香港时间12时00分

Chief Executive delivers Lunar New Year message (with photos/video)
******************************************************

Following is the translation of the Lunar New Year message delivered by the Chief Executive, Mr Donald Tsang, today (February 2):

The Lunar New Year is a time for family reunion, a time full of warmth and happiness. I hope every family will be filled with joy in the year to come.

We wish you all good health and happiness in the Year of the Rabbit.


Ends/Wednesday, February 2, 2011
Issued at HKT 12:00

IPB Image

代码
HD aTV_Chief Executive delivers Lunar New Year message-HDC.ts
   General #2
      ID : 2
      Complete name : HD aTV_Chief Executive delivers Lunar New Year message-HDC.ts
      Format : MPEG-TS
      File size : 96.1 MiB
      Duration : 58s 216ms
      Overall bit rate : 13.8 Mbps
   Video #121
      ID : 121 (0x79)
      Menu ID : 12 (0xC)
      Format : AVC
      Format/Info : Advanced Video Codec
      Format profile : Main@L4.0
      Format settings, CABAC : Yes
      Format settings, ReFrames : 4 frames
      Duration : 58s 360ms
      Bit rate : 12.3 Mbps
      Maximum bit rate : 11.4 Mbps
      Width : 1 920 pixels
      Height : 1 080 pixels
      Display aspect ratio : 16:9
      Frame rate : 25.000 fps
      Resolution : 24 bits
      Colorimetry : 4:2:0
      Scan type : Interlaced
      Scan order : Top Field First
      Bits/(Pixel*Frame) : 0.238
      Stream size : 85.7 MiB (89%)
      colour_primaries : BT.709-5, BT.1361, IEC 61966-2-4, SMPTE RP177
      transfer_characteristics : BT.709-5, BT.1361
      matrix_coefficients : BT.709-5, BT.1361, IEC 61966-2-4 709, SMPTE RP177
   Audio #122
      ID : 122 (0x7A)
      Menu ID : 12 (0xC)
      Format : AC-3
      Format/Info : Audio Coding 3
      Duration : 57s 984ms
      Bit rate mode : Constant
      Bit rate : 192 Kbps
      Maximum bit rate : 196 Kbps
      Channel(s) : 2 channels
      Channel positions : L R
      Sampling rate : 48.0 KHz
      Video delay : 143ms
      Stream size : 1.33 MiB (1%)
   Audio #123
      ID : 123 (0x7B)
      Menu ID : 12 (0xC)
      Format : AC-3
      Format/Info : Audio Coding 3
      Duration : 58s 240ms
      Bit rate mode : Constant
      Bit rate : 384 Kbps
      Maximum bit rate : 392 Kbps
      Channel(s) : 6 channels
      Channel positions : Front: L C R, Surround: L R, LFE
      Sampling rate : 48.0 KHz
      Video delay : 49ms
      Stream size : 2.67 MiB (3%)

正在读取……

这里是其它用户补充的资源(我也要补充):

暂无补充资源
该资源还没有任何评论

该资源评论已被关闭