v

您的位置:VeryCD动漫剧场动画

动漫资源事务区


《卑鄙的我:迷你电影》(Despicable Me Mini Movies)[DVDRip]

  • 状态: 精华资源
  • 摘要:
    发行时间2010年
    语言英语
  • 时间: 2011/01/30 08:54:46 发布 | 2011/02/01 13:22:50 更新
  • 分类: 动漫  剧场动画 

sky200700

精华资源: 193

全部资源: 193

相关: 分享到新浪微博   转播到腾讯微博   分享到开心网   分享到人人   分享到QQ空间   订阅本资源RSS更新   美味书签  subtitle
该内容尚未提供权利证明,无法提供下载。
中文名卑鄙的我:迷你电影
英文名Despicable Me Mini Movies
资源格式DVDRip
发行时间2010年
地区美国
语言英语
简介

IPB Image

【简介】

剧情

  故事讲述了史蒂夫·卡瑞尔配音的可怜主人公格鲁,策划了一出完美的计划,图谋把月亮偷到手。不料在邪恶母亲(朱莉·安德鲁斯配音)的怂恿下,格鲁察觉一块绊脚石阻碍了他的计划:三个女孤儿临时寄住在他那里,并且不恳离开。格鲁将怎样应对突如其来的绊脚石,怎样继续他的完美偷月计划呢……

【STAFF】
皮艾尔·柯芬 Pierre Coffin


【CAST】

史蒂夫·卡瑞尔 Steve Carell....Gru (voice)
米兰达·卡斯格拉夫 Miranda Cosgrove....Margo (voice)
埃尔希·费舍 Elsie Fisher....Agnes (voice)
达娜·盖伊 Dana Gaier....Edith (voice)
拉塞尔·布兰德 Russell Brand....Dr. Nefario (voice)
杰森·席格尔 Jason Segel....Vector (voice)
威尔·阿奈特 Will Arnett....Mr. Perkins (voice)
肯·郑 Ken Jeong....Scientist (voice)
克里斯汀·韦格 Kristen Wiig....Miss Hattie (voice)
丹尼·麦克布耐德 Danny McBride....Fred McDade (voice)
朱丽·安德鲁斯 Julie Andrews....Gru's Mom (voice)
杰梅奈·克莱门特 Jemaine Clement....Tim (voice)
敏迪·卡灵 Mindy Kaling....Tourist Mom (voice)
杰克·麦克布瑞尔 Jack McBrayer....Tourist Dad (voice)

代码
Stats
Complete name                    : exvid-dm.banana.avi
Format                          : AVI
Format/Info                      : Audio Video Interleave
File size                        : 50.1 MiB
Duration                        : 3mn 46s
Overall bit rate                : 1 855 Kbps
Writing application              : VirtualDubMod 1.5.10.2 (build 2540/release
Writing library                  : VirtualDubMod build 2540/release

Video
ID                              : 0
Format                          : MPEG-4 Visual
Format profile                  : Advanced SimpleL5
Format settings, BVOP            : Yes
Format settings, QPel            : No
Format settings, GMC            : No warppoints
Format settings, Matrix          : Default (H.263
Muxing mode                      : Packed bitstream
Codec ID                        : XVID
Codec ID/Hint                    : XviD
Duration                        : 3mn 46s
Bit rate                        : 1 462 Kbps
Width                            : 640 pixels
Height                          : 352 pixels
Display aspect ratio            : 16:9
Frame rate                      : 23.976 fps
Color space                      : YUV
Chroma subsampling              : 4:2:0
Bit depth                        : 8 bits
Scan type                        : Progressive
Bits/(PixelFrame)              : 0.271
Stream size                      : 39.5 MiB (79
Writing library                  : XviD 1.2.1 (UTC 2008-12-04

Audio
ID                              : 1
Format                          : AC-3
Format/Info                      : Audio Coding 3
Mode extension                  : CM (complete main
Codec ID                        : 2000
Duration                        : 3mn 46s
Bit rate mode                    : Constant
Bit rate                        : 384 Kbps
Channel(s)                      : 6 channels
Channel positions                : Front: L C R, Side: L R, LFE
Sampling rate                    : 48.0 KHz
Bit depth                        : 16 bits
Stream size                      : 10.4 MiB (21
Alignment                        : Split across interleaves
Interleave, duration            : 42 ms (1.00 video frame
Interleave, preload duration    : 500 ms

Complete name                    : exvid-dm.home.makeover.avi
Format                          : AVI
Format/Info                      : Audio Video Interleave
File size                        : 50.2 MiB
Duration                        : 4mn 23s
Overall bit rate                : 1 596 Kbps
Writing application              : VirtualDubMod 1.5.10.2 (build 2540/release
Writing library                  : VirtualDubMod build 2540/release

Video
ID                              : 0
Format                          : MPEG-4 Visual
Format profile                  : Advanced SimpleL5
Format settings, BVOP            : Yes
Format settings, QPel            : No
Format settings, GMC            : No warppoints
Format settings, Matrix          : Default (H.263
Muxing mode                      : Packed bitstream
Codec ID                        : XVID
Codec ID/Hint                    : XviD
Duration                        : 4mn 23s
Bit rate                        : 1 202 Kbps
Width                            : 640 pixels
Height                          : 352 pixels
Display aspect ratio            : 16:9
Frame rate                      : 23.976 fps
Color space                      : YUV
Chroma subsampling              : 4:2:0
Bit depth                        : 8 bits
Scan type                        : Progressive
Bits/(PixelFrame)              : 0.223
Stream size                      : 37.8 MiB (75
Writing library                  : XviD 1.2.1 (UTC 2008-12-04

Audio
ID                              : 1
Format                          : AC-3
Format/Info                      : Audio Coding 3
Mode extension                  : CM (complete main
Codec ID                        : 2000
Duration                        : 4mn 23s
Bit rate mode                    : Constant
Bit rate                        : 384 Kbps
Channel(s)                      : 6 channels
Channel positions                : Front: L C R, Side: L R, LFE
Sampling rate                    : 48.0 KHz
Bit depth                        : 16 bits
Stream size                      : 12.1 MiB (24
Alignment                        : Split across interleaves
Interleave, duration            : 42 ms (1.00 video frame
Interleave, preload duration    : 500 ms

Complete name                    : exvid-dm.orientation.day.avi
Format                          : AVI
Format/Info                      : Audio Video Interleave
File size                        : 50.1 MiB
Duration                        : 4mn 1s
Overall bit rate                : 1 740 Kbps
Writing application              : VirtualDubMod 1.5.10.2 (build 2540/release
Writing library                  : VirtualDubMod build 2540/release

Video
ID                              : 0
Format                          : MPEG-4 Visual
Format profile                  : Advanced SimpleL5
Format settings, BVOP            : Yes
Format settings, QPel            : No
Format settings, GMC            : No warppoints
Format settings, Matrix          : Default (H.263
Muxing mode                      : Packed bitstream
Codec ID                        : XVID
Codec ID/Hint                    : XviD
Duration                        : 4mn 1s
Bit rate                        : 1 347 Kbps
Width                            : 640 pixels
Height                          : 352 pixels
Display aspect ratio            : 16:9
Frame rate                      : 23.976 fps
Color space                      : YUV
Chroma subsampling              : 4:2:0
Bit depth                        : 8 bits
Scan type                        : Progressive
Bits/(PixelFrame)              : 0.249
Stream size                      : 38.8 MiB (77
Writing library                  : XviD 1.2.1 (UTC 2008-12-04

Audio
ID                              : 1
Format                          : AC-3
Format/Info                      : Audio Coding 3
Mode extension                  : CM (complete main
Codec ID                        : 2000
Duration                        : 4mn 1s
Bit rate mode                    : Constant
Bit rate                        : 384 Kbps
Channel(s)                      : 6 channels
Channel positions                : Front: L C R, Side: L R, LFE
Sampling rate                    : 48.0 KHz
Bit depth                        : 16 bits
Stream size                      : 11.1 MiB (22
Alignment                        : Split across interleaves
Interleave, duration            : 42 ms (1.00 video frame
Interleave, preload duration    : 500 ms

正在读取……

这里是其它用户补充的资源(我也要补充):

暂无补充资源
正在加载,请稍等...

点击查看所有78网友评论

 

(?) [公告]留口水、评论相关规则 | [活动]每日签到 轻松领取电驴经验

    小贴士:
  1. 类似“顶”、“沙发”之类没有营养的文字,对勤劳贡献的楼主来说是令人沮丧的反馈信息。
  2. 提问之前请再仔细看一遍楼主的说明,或许是您遗漏了。
  3. 勿催片。请相信驴友们对分享是富有激情的,如果确有更新版本,您一定能搜索到。
  4. 请勿到处挖坑绊人、招贴广告。既占空间让人厌烦,又没人会搭理,于人于己都无利。
  5. 如果您发现自己的评论不见了,请参考以上4条。