v

您的位置:VeryCD音乐日韩音乐

音乐资源事务区


JYJ -《Music Essay:Their Rooms》专辑[APE]

  • 状态: 精华资源
  • 摘要:
    音乐风格流行
    发行时间2011年1月27日
    地区韩国
    语言朝鲜语
  • 时间: 2011/01/27 21:35:32 发布 | 2011/03/25 22:19:56 更新
  • 分类: 音乐  日韩音乐 

最爱豆花TVXQ

精华资源: 40

全部资源: 41

相关: 分享到新浪微博   转播到腾讯微博   分享到开心网   分享到人人   分享到QQ空间   订阅本资源RSS更新   美味书签  subtitle
该内容尚未提供权利证明,无法提供下载。
专辑中文名Music Essay:Their Rooms
歌手JYJ
音乐风格流行
资源格式APE
版本专辑
发行时间2011年1月27日
地区韩国
语言朝鲜语
简介

引用
IPB Image

Music Essay:Their Rooms-网盘下载
PS:下载完成后请愿意帮忙供源的亲,移至电驴文件夹供源,为了让更多的亲可以下载到资源,谢谢了。

专辑介绍:


JYJ的Music Essay席卷线上各大书籍搜索网站,成为出版业界的蓝筹股。
JYJ的Music Essay“Their Rooms—我们的故事”于3日开始提前预定后,便席卷了各大线上书籍搜索网站,引起了一阵预定狂潮。这是既上次Worldwide专辑‘The Beginning’预定量突破52万张后,再一次席卷出版市场。
这次发行的Music Essay中将包含JYJ演唱会和专辑准备的全过程,以及空闲时间写的随笔和有感、photodiary等多种内容。特别是这次Music Essay中还收录了‘MISSION’, PIERROT’, ‘落叶’等6首JYJ成员们亲自作词作曲的歌曲,意义非凡。
JYJ三名成员将在“我们的故事”、“我的故事”中坦言自己这段时间来所经历的苦难、逆境,并通过这本书表达对一直等待陪伴他们的歌迷们的感谢和爱。另外在Music Essay中JYJ成员们也想向读者们展示自己不是作为艺术家,而是作为一个平凡人的各种真实的面貌。
JYJ成员们也表示“这次的Music Essay是对一直等待我们、相信我们的歌迷们传达的告白礼物。不论是艰辛还是快乐我们都想诚实地传达给大家,并想通过这次的Music Essay和歌迷们一起分享我们小小的幸福和安慰。”

EAC抓轨的日志如下:
Exact Audio Copy V0.99 prebeta 5 from 4. May 2009

EAC 抓取日志文件从25. 三月 2011, 20:42

未知艺术家 / 未知标题

使用驱动器 :Optiarc DVD RW AD-7700S Adapter: 0 ID: 1

读取模式 : 暴发

读取偏移校正 : 48
读取 Lead-In 和 Lead-Out : 否
用静音填充抓取中丢失偏移的采样 : 是
去除首尾静音块 : 否
在 CRC 计算中使用了空样本 : 否
已用接口 : Win NT 及 2000 本地 Win32 接口

所用输出格式 : 内部 WAV 函数
样本格式 : 44.100 Hz;16 Bit;立体声


被抓轨 CD 的 TOC

音轨 | 开始 | 长度 | 起始扇区 | 结尾扇区
--------------------------------------------------
1 | 0:00.00 | 4:05.14 | 0 | 18388
2 | 4:05.14 | 5:08.38 | 18389 | 41526
3 | 9:13.52 | 4:27.07 | 41527 | 61558
4 | 13:40.59 | 5:00.69 | 61559 | 84127
5 | 18:41.53 | 3:29.70 | 84128 | 99872
6 | 22:11.48 | 8:03.38 | 99873 | 136135


范围状态及错误

已选择范围

文件名 E:\TVXQ\Their Rooms.wav

计时问题 0:00:03
计时问题 0:00:40

峰值电平 100.0 %
复制 CRC CB72C7D9
复制结束

没有错误发生


AccurateRip 概要

音轨 1 数据库中未见
音轨 2 数据库中未见
音轨 3 数据库中未见
音轨 4 数据库中未见
音轨 5 数据库中未见
音轨 6 数据库中未见

没有任何音轨出现在 AccurateRip 数据库中

状态报告结尾



专辑曲目

1.Mission
2.Nine
3.삐에로(Pierrot)
4.낙입(Fallen Leave...)
5.I.D.S(I Deal Scenario)
6.이름없는 노래(Full Audio) Part.1

正在读取……

这里是其它用户补充的资源(我也要补充):

暂无补充资源
正在加载,请稍等...

点击查看所有88网友评论

 

(?) [公告]留口水、评论相关规则 | [活动]每日签到 轻松领取电驴经验

    小贴士:
  1. 类似“顶”、“沙发”之类没有营养的文字,对勤劳贡献的楼主来说是令人沮丧的反馈信息。
  2. 提问之前请再仔细看一遍楼主的说明,或许是您遗漏了。
  3. 勿催片。请相信驴友们对分享是富有激情的,如果确有更新版本,您一定能搜索到。
  4. 请勿到处挖坑绊人、招贴广告。既占空间让人厌烦,又没人会搭理,于人于己都无利。
  5. 如果您发现自己的评论不见了,请参考以上4条。