v

您的位置:VeryCD综艺纪录片

综艺资源事务区


《国家地理频道:中世纪兵法书》(National Geographic Channel: Medieval Fight Book)全一集[HDTV]

  • 状态: 精华资源
  • 摘要:
    发行时间2010年
    地区美国
    语言英语
  • 时间: 2011/01/26 22:43:31 发布 | 2011/02/05 11:35:43 更新
  • 分类: 综艺  纪录片 

life_is_good

精华资源: 6571

全部资源: 7301

相关: 分享到新浪微博   转播到腾讯微博   分享到开心网   分享到人人   分享到QQ空间   订阅本资源RSS更新   美味书签  subtitle
该内容尚未提供权利证明,无法提供下载。
中文名国家地理频道:中世纪兵法书
英文名National Geographic Channel: Medieval Fight Book
资源格式HDTV
版本全一集
发行时间2010年
制作发行National Geographic
地区美国
语言英语
简介

IPB Image

【类型】: 纪录
【影片长度】: 45分钟
【集数】:全一集
【字幕】: 暂无
【服务器】: 随机
【分享时间】:全天

【内容介绍】:

暴力、神秘并富含知识, Medieval Fight Book结识了中世纪欧洲的真实故事。使用精确的的历史重现,炫目的CGI技术和全球顶尖历史学家的采访,本节目将告诉你中世纪的故事远比你我认识到的复杂和奇特。晦涩而古怪的Medieval Fight Book尘封在图书馆中已经许久,现在它将帮助我们解密中世纪的秘密。包括中世纪的各种复杂的战争,奇异的未来派设计和发明,天才的工厂,司法决斗等等等等。(文:life_is_good@YDY)

代码
General
Complete name : National.Geographic.Medieval.Fight.Book.HDTV.XviD-FQM.avi
Format : AVI
Format/Info : Audio Video Interleave
File size : 350 MiB
Duration : 45mn 30s
Overall bit rate : 1 075 Kbps
Writing application : transcode-1.0.4

Video
ID : 0
Format : MPEG-4 Visual
Format profile : Advanced Simple@L5
Format settings, BVOP : Yes
Format settings, QPel : No
Format settings, GMC : No warppoints
Format settings, Matrix : Default (H.263)
Codec ID : XVID
Codec ID/Hint : XviD
Duration : 45mn 30s
Bit rate : 940 Kbps
Width : 624 pixels
Height : 352 pixels
Display aspect ratio : 16:9
Frame rate : 23.976 fps
Color space : YUV
Chroma subsampling : 4:2:0
Bit depth : 8 bits
Scan type : Progressive
Compression mode : Lossy
Bits/(Pixel*Frame) : 0.178
Stream size : 306 MiB (87%)
Writing library : XviD 1.2.1 (UTC 2008-12-04)

Audio
ID : 1
Format : MPEG Audio
Format version : Version 1
Format profile : Layer 3
Codec ID : 55
Codec ID/Hint : MP3
Duration : 45mn 30s
Bit rate mode : Variable
Bit rate : 128 Kbps
Channel(s) : 2 channels
Sampling rate : 48.0 KHz
Bit depth : 16 bits
Compression mode : Lossy
Stream size : 39.9 MiB (11%)
Alignment : Aligned on interleaves
Interleave, duration : 24 ms (0.58 video frame)
Writing library : LAME3.98.2

正在读取……

这里是其它用户补充的资源(我也要补充):

暂无补充资源
正在加载,请稍等...

点击查看所有26网友评论

 

(?) [公告]留口水、评论相关规则 | [活动]每日签到 轻松领取电驴经验

    小贴士:
  1. 类似“顶”、“沙发”之类没有营养的文字,对勤劳贡献的楼主来说是令人沮丧的反馈信息。
  2. 提问之前请再仔细看一遍楼主的说明,或许是您遗漏了。
  3. 勿催片。请相信驴友们对分享是富有激情的,如果确有更新版本,您一定能搜索到。
  4. 请勿到处挖坑绊人、招贴广告。既占空间让人厌烦,又没人会搭理,于人于己都无利。
  5. 如果您发现自己的评论不见了,请参考以上4条。