v

您的位置:VeryCD综艺纪录片

综艺资源事务区


《国家地理:大迁徙》(National Geographic: Great Migrations)重庆卫视携手国家地理联合巨献/生灵的远征/7集全/国语中字/标清录制原创资源[MPG][TVRip]

  • 状态: 精华资源
  • 摘要:
    发行时间2010年
    地区美国
    语言普通话
  • 时间: 2011/01/11 13:16:13 发布 | 2011/01/12 10:14:48 更新
  • 分类: 综艺  纪录片 

wanliqu123

精华资源: 1

全部资源: 1

相关: 分享到新浪微博   转播到腾讯微博   分享到开心网   分享到人人   分享到QQ空间   订阅本资源RSS更新   美味书签  subtitle
该内容尚未提供权利证明,无法提供下载。
中文名国家地理:大迁徙
英文名National Geographic: Great Migrations
别名生灵的远征
资源格式TVRip
版本重庆卫视携手国家地理联合巨献/生灵的远征/7集全/国语中字/标清录制原创资源[MPG]
发行时间2010年
制作发行国家地理 National Geographic
地区美国
语言普通话
简介

IPB Image
国家地理频道《大迁徙》重庆卫视版,纯卫星数字信号录制,广告和预告片完美切除,每集时长为45分钟左右,共七集。 第七集为纯音乐,无配音;对比蓝光版有部分删减,但95%以上的内容都一样;
重庆卫视播出时间:2010年12月25日至31日,每天一集,共7集,首播: 8:45 重播: 23:50 配音旁白:李野墨;
第一集:繁衍生息 第二集:千里跋涉 第三集:觅食求生 第四集:分秒必争 第五集:科学看迁徙 第六集:幕后花絮 第七集:生命之歌;
由于工作原因!供源时间不稳定,争取最短时间内出种,下好的朋友请续种!

引用
腾讯网
12月19日,重庆卫视携手国家地理频道,在重庆卢米埃影院共同举办了《生灵的远征》登陆中国首映礼,来自全国的14家媒体,近200余名观众提前欣赏到由美国国家地理频道历时三年精心制作的野生动物史诗巨制《生灵的远征》系列纪录片之一,许多观众都被片中传达的动物求生的力量深深感动。据悉,该系列片共有7集,将作为重庆卫视《纵横天下》栏目年度特别节目在12月25日至31日全国独家播出。
《生灵的远征》系列节目讲述了数百万只动物为了物种生存而进行的艰苦迁徙过程,重新定义了动物「移动」的深刻含义。观众将透过令人屏息的高清画面一同目睹地球上数十个物种生存、迁徙、繁衍的动人故事。观众将会看到科学上的新发现:圣诞岛不可思议的红螃蟹;澳洲飞狐、哥斯达黎加行军蚁;印度尼西亚的黄金水母;第一次将无线电发射器安装在一只帝王蝶身上;以及,近三十年来,首次捕捉到的白耳赤羚迁徙的精彩画面等。
为了带回这一空前的节目,国家地理频道制作小组斥巨资,实地拍摄两年半时间,行遍全球七大洲,踏遍120个国家,旅行总长达670,000公里。值得一提的是,该片是国家地理频道第一部以蓝光高清格式拍摄野生动物的影片,总长超过800小时;过程中大量使用了遥控直升机、热气球、潜艇等最先进的方式,拍摄出这部自然历史记录上前所未有的影片。
《生灵的远征》系列节目自今年11月在全球首映后,反响十分热烈。”国家地理频道亚洲区副总裁、中国区副总经理区咏卿女士表示,“国家地理频道很期待和重庆卫视的合作,希望通过重庆卫视的广阔平台,把这部倾心巨作带给全中国的观众朋友们,同时也希望让大家看到,改变的气候和我们人类的足迹对动物迁徙所造成的影响。期待大家共建‘生态全球,宜居重庆’的崭新形象。”
秉承人文理念,肩负媒体责任,重庆卫视率先在全国打造“弘扬经典文化,彰显主流价值”的卫视传播平台,2011年,重庆卫视以“唱读讲传”为核心的全新版面即将与观众见面。重庆广播电视集团(总台)副总裁黄翔先生表示,“重庆卫视一贯秉承主流价值传播,责任媒体担当,自然社会和谐的媒体价值观,高举‘中国红’大旗,弘扬经典文化,此次重庆卫视与国家地理携手合作,是重庆卫视‘中国红’主题的深化,题材的开掘,本次活动以‘生态全球,宜居重庆’为主题,旨在唤起大众保护生态居住环境,创造宜居城市的意识,。”
《生灵的远征》系列节目共七集。主要包括《繁衍生息》、《千里跋涉》、《分秒必争》、《觅食求生》等四集完整记录全球动物迁徙的故事,两集特别报道《科学看迁徙》、《幕后花絮》,和一集精彩的影音飨宴《生命之歌》。其中国译制版特别邀请到了业界最受人尊敬的李野墨老师为本片配音。作为中国中央电视台中国电视剧制作中心导演、演播艺术家,李野墨老师从上世纪八十年代开始就为故事片、纪录片、专题片录制旁白,作品数以千计。

※※※※※※※ 影片信息 ※※※※※※※

【片  名】:大迁徙
【播出频道】:National Geographic Channel 重庆卫视
【地  区】:美国
【年  代】:2010
【类  型】:记录片
【语  言】:普通话
【字  幕】:简体中文
【IMDB评分】:8.2
【IMDB链接】:http://www.imdb.com/title/tt1769803/

※※※※※※※ 影片简介 ※※※※※※※

数百万只的动物,数千哩的路程,数百个故事。国家地理频道将对全世界送上此一历时3年制作的节目──以前所未见的视野记录动物迁徙的过程,横跨全球,直到目的地。国家地理投注大量资源挹注本系列的拍摄,运用高画质技术,呈现鼓舞人心,有时却令人心痛的漫长旅程;迁徙之路困难重重,为了生存仍不得不为。

◆ 大迁徙:千里跋涉 (Great.Migrations.EP01.Born.to.Move)

每天地球上都有数以百万计的动物加入迁徙行列,不论是天上飞的还是地上跑的。它们是动物界的浪人,一生下来就注定了飘泊的命运。从最小的蝴蝶到最大的牛羚,这些旅者的生存取决于随时上路的能力。本集走访全球拍摄四种惊人的动物迁徙过程:抹香鲸一辈子会游超过一百万哩;红蟹每日与骇人障碍搏斗;帝王蝶四个世代横跨大陆的接力赛;和牛羚每年勇闯鳄鱼阵的迁徙。国家地理频道《大迁徙》以前所未有的方式展现这些壮丽、惊人又极具启发性的故事。耗费三年制作,遍及全球并以尖端技术拍摄,呈现了生死奋斗与重生的故事,这是世上最感人的故事。

◆ 大迁徙:繁衍生息 (Great.Migrations.EP02.Need.to.Breed)

每天地球上都有数以百万计的动物加入迁徙行列,牠们不顾一切进行一件无比重要的事,那就是创造和养育宝贵的下一代。福克兰群岛的岩岸上,哥斯达黎加与澳洲的密林里,苏丹南部的荒凉草原上,皆有无数动物为求生存,延续物种,冒险展开永无止境的迁徙。

◆ 大迁徙:分秒必争 (Great.Migrations.EP03.Race.to.Survive)

大迁徙已经展开,在变换的季节和气候驱使下,无数动物每天都必须前进,否则就会死去。牠们必须及时抵达目的地,开始繁殖、进食或只是单纯地求生存。从北极浮冰到波札那盐沼,数兆生物被迫展开旅程,努力争取自己的生存和种族的延续。从海象到鲸鲨,从斑马到红毛猩猩,从叉角羚到浮游生物,所有动物每天都在跟时间赛跑。

◆ 大迁徙:觅食求生 (Great.Migrations.EP04.Feast.or.Famine)

生物出于饥饿进行迁徙,规模往往浩大。天天有无数生物为了寻找更青翠的牧野而迁移,例如微小的浮游生物,稀有的沙漠象,掠食性白头海鵰,会发光的水母,贪食的大白鲨,还有灵敏的游隼。有无数生物不断成群迁移,共同努力求生存。

◆ 大迁徙:科学看迁徙 (Great.Migrations.EP05.Science.of.Migrations)

动物的行为常令科学家又是迷惑又是讶异。拜科技之所赐,科学家现在得以前往过去不曾涉足之地,以全新视野,巨细靡遗地观察这些现象。本集节目将让观众了解,科学家如何利用最先进的追踪技术,了解这些动物的迁徙;大至象鼻海豹,小至帝王蝶,南来北往的过程,通通呈现观众眼前。除此之外,这一集节目还能让观众了解,科学家如何透过手机简讯,拯救濒临绝种的动物;运用数学运算模型也许能预测出一群动物生存机率。

◆ 大迁徙:幕后花絮 (Great.Migrations.EP06.Behind.the.Scenes)

全由国家地理频道人员组成的大迁徙小组共花了三年,制作这一系列节目。小组成员行遍七大洲,共一百二十国,总长670,000公里。最后终于得以将这一野心勃勃的节目,透过电视,呈现在观众眼前。透过大迁徙系列节目可看到国家地理频道制作小组所投注的心力(他们也像动物一样到处迁徙!),为的就是将我们所居住的这个星球上,有关移动的精彩故事,带到观众面前。
※※※※※※※ 编码参数 ※※※※※※※
K:\National Geographic Great Migrations E01-07 2010 mpeg2-wanliqu123\National Geographic Great Migrations E07 mpeg2-wanliqu123.mpg
General
Complete name : K:\National Geographic Great Migrations E01-07 2010 mpeg2-wanliqu123\National Geographic Great Migrations E07 mpeg2-wanliqu123.mpg
Format : MPEG-PS
File size : 2.21 GiB
Duration : 45mn 14s
Overall bit rate : 6 980 Kbps
Video #224
ID : 224 (0xE0)
Format : MPEG Video
Format version : Version 2
Format profile : Main@Main
Format settings, BVOP : Yes
Format settings, Matrix : Default
Duration : 45mn 14s
Bit rate mode : Variable
Bit rate : 6 447 Kbps
Nominal bit rate : 7 500 Kbps
Width : 720 pixels
Height : 576 pixels
Display aspect ratio : 4:3
Frame rate : 25.000 fps
Standard : PAL
Resolution : 8 bits
Colorimetry : 4:2:0
Scan type : Interlaced
Scan order : Top Field First
Bits/(Pixel*Frame) : 0.622
Stream size : 2.04 GiB (92%)
Audio #192
ID : 192 (0xC0)
Format : MPEG Audio
Format version : Version 1
Format profile : Layer 2
Duration : 45mn 14s
Bit rate mode : Constant
Bit rate : 256 Kbps
Channel(s) : 2 channels
Sampling rate : 48.0 KHz
Stream size : 82.8 MiB (4%)
※※※※※※※ 视频截图 ※※※※※※※
视频截图地址:
http://i53.tinypic.com/2a5i4wl.jpg
http://i52.tinypic.com/2mr5dds.jpg
http://i51.tinypic.com/33zb72q.jpg
http://i51.tinypic.com/301ohtx.jpg
http://i52.tinypic.com/2usg56r.jpg
http://i53.tinypic.com/15x3fci.jpg
复制粘贴到地址栏打开即可!
电信4M光纤 上下512kbps

正在读取……

这里是其它用户补充的资源(我也要补充):

暂无补充资源
正在加载,请稍等...

点击查看所有39网友评论

 

(?) [公告]留口水、评论相关规则 | [活动]每日签到 轻松领取电驴经验

    小贴士:
  1. 类似“顶”、“沙发”之类没有营养的文字,对勤劳贡献的楼主来说是令人沮丧的反馈信息。
  2. 提问之前请再仔细看一遍楼主的说明,或许是您遗漏了。
  3. 勿催片。请相信驴友们对分享是富有激情的,如果确有更新版本,您一定能搜索到。
  4. 请勿到处挖坑绊人、招贴广告。既占空间让人厌烦,又没人会搭理,于人于己都无利。
  5. 如果您发现自己的评论不见了,请参考以上4条。