v

您的位置:VeryCD动漫动漫周边

动漫资源事务区


《攻壳机动队S.A.C. SSS 3D 剧场版 预告片》(Ghost In The Shell S.A.C. Solid State Society 3D Movie Trailer)[1080P][MKV]

  • 状态: 精华资源
  • 摘要:
    发行时间2011年3月26日
    对白语言日语
  • 时间: 2011/01/05 02:09:09 发布 | 2011/01/09 18:32:53 更新
  • 分类: 动漫  动漫周边 

yycdmh

精华资源: 53

全部资源: 56

相关: 分享到新浪微博   转播到腾讯微博   分享到开心网   分享到人人   分享到QQ空间   订阅本资源RSS更新   美味书签  subtitle
该内容尚未提供权利证明,无法提供下载。
中文名攻壳机动队S.A.C. SSS 3D 剧场版 预告片
英文名Ghost In The Shell S.A.C. Solid State Society 3D Movie Trailer
别名攻殻機動隊 S.A.C. SSS 3D 劇場用予告
版本[1080P][MKV]
发行时间2011年3月26日
地区日本
对白语言日语
简介

IPB Image

【作品介绍】

没错!你没有看错!我也没有打错!SSS确实要重制了!而且从OVA跳到了3D剧场版!

漫画家士郎正宗创作的「攻壳机动队」,自从改编自动画以来,凭著其极度真实的科幻描写,完全写实的背景设定、深邃的内涵,极富韵味的剧情、再加上 Production I.G的超精良制作,使「攻壳机动队」完全成了一代的经典,一代的神作。自95年给押井守改编成剧场版,再在03年开始改编成TV动画系列,无论是剧场版或是TV动画也给人一种难以忘怀的振撼力。对于这么一部的经典神作,对于一些有资力的ACG迷来说当然难以忘怀,而现在将为大家带来一个好消息——Production I.G将会把「攻壳机动队」的长编OVA「攻壳机动队:Stand Alone Complex:Solid State Society 」3D剧场化!!

根据于11月22日,由以監督神山健治为首的「东之伊甸」班作团队所举办的「2010.11.22 REAL 不小心的星期一」活动中,正式宣告了将会把由神山健治和Production I.G于06年合力制作的长编OVA「攻壳机动队S.A.C. SSS」,以最新的3D技术将它转化成新的3D剧场版,并于明年3月26号于日本公映。对于这次的3D转化剧场版,神山健治表示非常充满信心,而 Production I.G也确定将会为这次的剧场版重新制作新的片头片段。

暂时来说,神山健治对这次的3D剧场版并没有透露出更多的消息,但表示关于剧场版的最新消息及状况将会透过监督及制片人石井朋彦的官方Twitter帐号上随时更新。

『東のエデン』の神山健治監督×プロダクション・アイジー制作の、大ヒットシリーズ『攻殻機動隊 STAND ALONE COMPLEX』のシリーズ三作目となる長編『攻殻機動隊 S.A.C. Solid State Society』が、神山監督の陣頭指揮の下、3D立体視作品として劇場公開される事が決定しました!

国内ビデオグラム販売累計230万本を突破、全世界から圧倒的な支持を集める『攻殻機動隊 S.A.C.』シリーズの完全3D化作品、『攻殻機動隊 S.A.C. SOLID STATE SOCIETY 3D』の制作進行状況、次々と企画されている各種イベント情報を お伝えします。Twitter にて、監督 と プロデューサー が、現場の状況もツイート。

公開日: 2011年3月26日(土)
上映館: 新宿バルト9ほか 全国公開


完全新作作画のオープニング、まだ誰も観たことがない、観客が自らサイボーグになったかのような視点で展開するまったく新しい3D映画に、ご期待ください。

【视频信息】

代码
General
Complete name                    : D:\downloads\[攻壳机动队.STAND.ALONE.COMPLEX:Solid.State.Society][3D.Movie.Trailer][H264.AC3][1080P].mkv
Format                           : Matroska
File size                        : 98.6 MiB
Duration                         : 1mn 36s
Overall bit rate                 : 8 531 Kbps
Encoded date                     : UTC 2011-01-04 16:14:10
Writing application              : mkvmerge v2.9.7 ('Tenderness') built on Jul  1 2009 18:43:35
Writing library                  : libebml v0.7.7 + libmatroska v0.8.1

Video
ID                               : 1
Format                           : AVC
Format/Info                      : Advanced Video Codec
Format profile                   : High@L4.0
Format settings, CABAC           : Yes
Format settings, ReFrames        : 2 frames
Muxing mode                      : Container profile=Unknown@4.0
Codec ID                         : V_MPEG4/ISO/AVC
Duration                         : 1mn 36s
Bit rate                         : 8 137 Kbps
Nominal bit rate                 : 8 047 Kbps
Width                            : 1 920 pixels
Height                           : 1 080 pixels
Display aspect ratio             : 16:9
Frame rate                       : 24.000 fps
Resolution                       : 24 bits
Colorimetry                      : 4:2:0
Scan type                        : Progressive
Bits/(Pixel*Frame)               : 0.164
Stream size                      : 94.1 MiB (95%)
Writing library                  : x264 core 75 r1251 e553a4c
Encoding settings                : cabac=1 / ref=1 / deblock=1:0:0 / analyse=0x3:0x113 / me=hex / subme=7 / psy=1 / psy_rd=1.0:0.0 / mixed_ref=0 / me_range=16 / chroma_me=1 / trellis=1 / 8x8dct=1 / cqm=0 / deadzone=21,11 / chroma_qp_offset=-2 / threads=3 / nr=0 / decimate=1 / mbaff=0 / bframes=3 / b_pyramid=0 / b_adapt=1 / b_bias=0 / direct=3 / wpredb=1 / keyint=250 / keyint_min=25 / scenecut=40 / rc_lookahead=40 / rc=abr / mbtree=1 / bitrate=8047 / ratetol=1.0 / qcomp=0.60 / qpmin=10 / qpmax=51 / qpstep=4 / ip_ratio=1.40 / aq=1:1.00

Audio
ID                               : 2
Format                           : AC-3
Format/Info                      : Audio Coding 3
Codec ID                         : A_AC3
Duration                         : 1mn 36s
Bit rate mode                    : Constant
Bit rate                         : 224 Kbps
Channel(s)                       : 2 channels
Channel positions                : L R
Sampling rate                    : 44.1 KHz
Stream size                      : 2.59 MiB (3%)


【STAFF】 (应该不变)

原作:士郎正宗
企画:石川光久·渡边繁
脚本:神山健治·菅正太郎·樱井圭记
分镜:神山健治·吉原正行
角色设定:后藤隆幸·西尾铁也
音乐:菅野洋子
音响监督:若林和弘
监督:神山健治

【CAST】 (应该不变)

草薙素子:田中敦子
荒卷大辅:阪脩
巴特:大塚明夫
托古萨:山寺宏一
石川:仲野裕
斋藤:大川透
帕兹:小野塚贵志
博玛:山口太郎
塔奇克玛:玉川纱己子

【视频截图】

IPB Image
IPB Image
IPB Image
IPB Image
IPB Image
IPB Image
IPB Image
IPB Image

借用下xinming2008兄的封面,莫见怪哈,因为太给力了。。。
IPB Image

正在读取……

这里是其它用户补充的资源(我也要补充):

暂无补充资源
正在加载,请稍等...

点击查看所有72网友评论

 

(?) [公告]留口水、评论相关规则 | [活动]每日签到 轻松领取电驴经验

    小贴士:
  1. 类似“顶”、“沙发”之类没有营养的文字,对勤劳贡献的楼主来说是令人沮丧的反馈信息。
  2. 提问之前请再仔细看一遍楼主的说明,或许是您遗漏了。
  3. 勿催片。请相信驴友们对分享是富有激情的,如果确有更新版本,您一定能搜索到。
  4. 请勿到处挖坑绊人、招贴广告。既占空间让人厌烦,又没人会搭理,于人于己都无利。
  5. 如果您发现自己的评论不见了,请参考以上4条。