v

您的位置:VeryCD音乐古典音乐

音乐资源事务区


Various Artist -《情迷法兰明高》(Obsession: New Flamenco Romance)[FLAC]

  • 状态: 精华资源
  • 摘要:
    古典类型协奏曲
    发行时间1999年03月09日
  • 时间: 2010/12/23 18:22:55 发布 | 2010/12/25 18:15:50 更新
  • 分类: 音乐  古典音乐 

rurocat

精华资源: 15

全部资源: 15

相关: 分享到新浪微博   转播到腾讯微博   分享到开心网   分享到人人   分享到QQ空间   订阅本资源RSS更新   美味书签  subtitle
该内容尚未提供权利证明,无法提供下载。
专辑英文名Obsession: New Flamenco Romance
专辑中文名情迷法兰明高
艺术家Various Artist
古典类型协奏曲
资源格式FLAC
发行时间1999年03月09日
地区美国
语言英语
简介

IPB Image

唱片公司:Narada
条型码/ISBN/编号:72438-47125-2-5
产地:欧盟

专辑介绍:


“Flamenco是种具有魅力的特殊奏法,它有丰富的和弦反复弹奏;有用指打面板的"戈尔贝"微妙的节奏;还喜用大小调交替,特别是以E为基音的调式(弗利几亚调式)以及这种调式AGFE下行的进行特色;还有纤细的阿拉伯装饰风格以及东方色彩的异国情调等等。弗拉门科不仅在西班牙,而且在世界各地都有其热情的爱好者。”
我一向偏心于安静的音乐,如果不是无意间听到了这首吉他与大提琴的合奏,我或许不会如此关注这张CD。对于flamenco,我只是听说过,更多的是陌生。我只能通过网上的资料试图了解他,他就好象与我一见投缘的新朋友,让我充满了好奇与关切。
《Obsession》是一张精选集。整张专辑给我更多的感觉是洋溢着热情与极速瞬变的动感,细节丰富,充满了生命力。我总在这脉络清晰、充满节奏感的曲风里想象着拨弄吉它的乐手,是娴熟的手指,陶醉的眼睛,狂乱而张扬的长发,是个性中的个性,愤懑中的愤懑,难道这一切确定缘于情迷......
抛开他所有的张扬与动感,我只在“Canción Triste”中迷乱,当吉它开始轻轻地拨动,如薄薄的风,吹皱了一池春水。当大提琴在吉它的掩饰下浅吟低唱时,你的心是否也起了波澜?原来flamenco也苦啊,每听到此曲,我总是低沉地讲不出任何的话语,眼睛梦一样地望着窗外的黑夜,没来由的悲伤,却是失了神的安静里,一些往事,一些见不了面的朋友,还有那绵绵不断的乡愁,都在眼前如浮云般悄悄掠过......
我是一个爱乌及乌的人,因着“Canción Triste”,我开始仔细聆听其中的每首曲。甚至在安静的夜里,和着他欢快的节奏,双手在桌面上打着节拍,双脚也不安份地想要舞蹈。你听“Cathedral Bells”,没有灯、没有月亮、没有眼睛的夜晚,只有乡间那座古老的教堂孤然矗立。斑驳的外墙、钟声的回荡诉说着十九世纪的沧桑,偶尔有山鸟凄厉一声,让人暗暗心惊,或许那是无意跌落的叹息与幽怨。朋友,别失落在那样的梦境里,你再听“Space”、“Abundance”、“Ritmos”......,跟随他轻盈、欢快的脚步,去感受那狂欢之夜。是那篝火扬起的山野散发着人群的灼热,是酒馆里即兴起舞的长裙撩拨着的快感。不设防的心灵、滚烫的热情,你还有理由不快乐吗?
打破一贯夜晚的宁静,尝试走入另一种心境。原来换了一种聆听方式,又是一片新的天地。有的时候不要太过于执着,如果拒绝放松自己,最爱你的人也爱莫能助了。
吉它从来都是如此的自由、奔放、扣人心弦。多少人梦中的吉它高高悬挂于床头,那是音乐的梦想、自由的心灵、燃烧的青春。
沉静过后必是狂舞,狂舞过后必有沉静,他的安排如此细致、善解,懂得给听者喘息的时间。我在其间遭遇着悲与喜、动与静,美感与痛感交织心头,不论是简洁的寂寞,出窍的心神,还是不加掩饰的欢乐都如一弯清溪流泻着,似睡似醒在一个古老又古老的梦里......
这张专辑是名家烩粹,OSCAR LOPEZ/ARMIK等等哪一个都是大师级名作。

代码
以上简介来自http://www.VeryCD.com/topics/24024/,而资源是来自楚天之声


共享条件:联通ADSL 4M带宽,上载理论64K,平均50K。
共享时间:不定时,除非线路故障或者机器故障。

[免责声明]
该下载内容仅限於个人测试学习之用,不得用於商业用途,并且请在下载后24小时内删除。
下载连接来自互联网,使用者后果自负与本论坛无关。
资源版权归作者及其公司所有,如果你喜欢,请购正版。


[共享时间] 每天不定时上网,请大家多多分流。谢谢!

代码

REM DISCID A00CEE0C
REM COMMENT ExactAudioCopy v0.99pb4
REM DATE 2009
REM GENRE FLAMENCO
PERFORMER "Various Artists"
TITLE "Obsession: New Flamenco Romance"
FILE "Various.Artists.-.[new.Flamenco.Romance].专辑.(flac).flac" WAVE
  TRACK 01 AUDIO
    TITLE "Canción Triste"
    PERFORMER "Jesse Cook"
    INDEX 01 00:00:00
  TRACK 02 AUDIO
    TITLE "Loving You"
    PERFORMER "Oscar Lopez"
    INDEX 00 04:59:57
    INDEX 01 05:01:50
  TRACK 03 AUDIO
    TITLE "Sueños de una Guitarra"
    PERFORMER "Chuscales"
    INDEX 00 09:35:07
    INDEX 01 09:36:70
  TRACK 04 AUDIO
    TITLE "Night in the South (Noche en el Sur)"
    PERFORMER "José Luis Encinas"
    INDEX 00 13:50:07
    INDEX 01 13:52:17
  TRACK 05 AUDIO
    TITLE "In the Hands of Love"
    PERFORMER "Ottmar Liebert"
    INDEX 00 18:50:60
    INDEX 01 18:52:47
  TRACK 06 AUDIO
    TITLE "Cathedral Bells (Homenaje A Ruby)"
    PERFORMER "Ruben Romero"
    INDEX 00 23:34:32
    INDEX 01 23:36:62
  TRACK 07 AUDIO
    TITLE "Space Flamenco"
    PERFORMER "Energipsy"
    INDEX 00 27:02:20
    INDEX 01 27:04:12
  TRACK 08 AUDIO
    TITLE "Abundance"
    PERFORMER "Govi"
    INDEX 00 31:11:25
    INDEX 01 31:14:10
  TRACK 09 AUDIO
    TITLE "Cariño"
    PERFORMER "Chris Spheeris"
    INDEX 00 36:38:37
    INDEX 01 36:41:20
  TRACK 10 AUDIO
    TITLE "Ritmos Flamenco"
    PERFORMER "Armik"
    INDEX 00 40:51:37
    INDEX 01 40:54:00
  TRACK 11 AUDIO
    TITLE "Tigris Palace"
    PERFORMER "Nova Menco"
    INDEX 00 45:54:62
    INDEX 01 45:56:57
  TRACK 12 AUDIO
    TITLE "Pozo del Deseo"
    PERFORMER "Songhai 2"
    INDEX 00 50:21:50
    INDEX 01 50:24:50



专辑曲目

01. Cancion Triste (5:02) Jesse Cook
02. Loving You (4:35) Oscar Lopez
03. Suenos de una Guitarra (4:15) Chuscales
04. Night in the South (Noche en el Sur) (5:00) Jose Luis Encinas
05. In the Hands of Love (4:44) Ottmar Liebert
06. Cathedral Bells (Homenaje A Ruby) (3:27) Ruben Romero
07. Space Flamenco (4:10) Energipsy
08. Abundance (5:27) Govi
09. Carino (4:13) Chris Spheeris
10. Ritmos Flamenco (5:03) Armik
11. Tigris Palace (4:27) NovaMenco
12 .Pozo del Deseo (4:45) Songhai 2

正在读取……

这里是其它用户补充的资源(我也要补充):

暂无补充资源
正在加载,请稍等...

点击查看所有53网友评论

 

(?) [公告]留口水、评论相关规则 | [活动]每日签到 轻松领取电驴经验

    小贴士:
  1. 类似“顶”、“沙发”之类没有营养的文字,对勤劳贡献的楼主来说是令人沮丧的反馈信息。
  2. 提问之前请再仔细看一遍楼主的说明,或许是您遗漏了。
  3. 勿催片。请相信驴友们对分享是富有激情的,如果确有更新版本,您一定能搜索到。
  4. 请勿到处挖坑绊人、招贴广告。既占空间让人厌烦,又没人会搭理,于人于己都无利。
  5. 如果您发现自己的评论不见了,请参考以上4条。