v

您的位置:VeryCD音乐其它音乐

音乐资源事务区


原声大碟 -《87版红楼梦主题歌曲》(Dream of The Redhouse)天凡之音-经典回顾珍藏版(更新简谱+五线谱)[FLAC]

  • 状态: 精华资源
  • 摘要:
    音乐类型民乐
    发行时间1995年
  • 时间: 2010/12/23 14:15:46 发布 | 2011/09/29 06:21:32 更新
  • 分类: 音乐  其它音乐 

44779778

精华资源: 3

全部资源: 6

相关: 分享到新浪微博   转播到腾讯微博   分享到开心网   分享到人人   分享到QQ空间   订阅本资源RSS更新   美味书签  subtitle
该内容尚未提供权利证明,无法提供下载。
专辑中文名87版红楼梦主题歌曲
专辑英文名Dream of The Redhouse
艺术家原声大碟
音乐类型民乐
资源格式FLAC
版本天凡之音-经典回顾珍藏版(更新简谱+五线谱)
发行时间1995年
地区大陆
语言普通话
简介

IPB Image

压缩比率:759K

专辑介绍:

王立平自述:
西游记的曲子我参与了,但没完成。因为我不太喜欢“猴戏”,我觉得自己是属于“情种”那一类的。
当导演夫人问我是否有兴趣为红楼梦作曲时,我说“我很有兴趣!”。我这人一辈子谨小慎微,只有这一次,为了“曹雪芹词、王立平曲”上刀山下火海,值了!
服装、台词、布景都是有据可查的,只有音乐是无中生有。 用心悟出了八个字“满腔惆怅、无限感慨”:这八个字首先是曹雪芹的,是他笔下人物的,进而要使他成为导演、演员的,最后还要把它带给观众。
写成什么样的,流行的、现代的、类港台的,都不行,流行的也是留不住的;六七十年代的风格更不行,缺人情味;戏曲、民歌也不足以表现某些感情(如分骨肉中的|63 - - | 21 6 - -| 1 26 1 -| 23 2 - -,和葬花吟中的| 1 7176 6 -| 1 7176 56 717|6 - - -)。最终决定把它写成“十三不靠”,创造一种能且只能适合红楼梦的“音乐方言”。 …… 对于红楼梦,每个人都是平等的,不管你的红楼知识是多是少,是红学家也好,初读者也好,都有权得到一份自己的特别的感受。
…… 林黛玉就应该是眼睛不大、个子不高,瘦弱不禁风的病模样,这是硬件;软件就更不行了,心眼小、爱闹脾气。林黛玉是曹最倾注心血的一个人物,把她写得满身是缺点,但又让你不得不爱不得不喜欢,这才是最高明的艺术。
…… 我跟导演说,你先别说你的想法,先听听我的想法。于是就把自己对红楼梦的看法、对这电视剧的想法、对红楼梦音乐的想法跟导演说了。导演立马说“就按你想的办”。
导演让我写一首“满纸荒唐言”听听,我知道这是在考考我。想了几天,跟导演说,不行,写不了,这首诗第一不表现红楼梦的什么东西,二是词句不美,三是太短了。又有人说要以“好了歌”为主题曲,我说不行,那一段是比较出世比较带消极色彩的东西。应用“枉凝眉”作主题曲。……枉凝眉是写了一年多。 过去有不少版本的葬花吟,越剧里的也曾很家喻户晓,但都是哭调。“|1.2 76 3 -| 1.3 27 6 -| 6. 65 32 2|……”三段反复的这一部分很顺利就写出来了。但这之后就写不下去了,有一年八九个月的时间下不了笔。 “天尽头,何处有香丘?!” 在很长一段时间的凝滞之后,终于悟到,这一句哪里是普普通通的哭诉,不正是林黛玉这样一个多情的弱女子在指问苍天么?于是情不自禁地唱出“|i 7i76 6 -| i 7i76 56 7i7 |6 - - -|i 7i76 6-|i 7 .6 56| 65 3 - - -”(这两句本是写枉凝眉和引子时写过的,苦思一年八九个月,答案正是王立平写过的东西).【我觉得,王立平将这一句写了两遍——一问一答,正是写出了这句词的两重意思。第一遍三个“7i76”一重高过一重,是黛玉满腔怨情的爆发,是怒问苍天;而第二遍的“何处(i7 .6)”则是已看透这一切的黛玉作出的凄然自答。那时候,她一定是茫然地木木地望着天边,花锄滑落在脚边,微风到处,花瓣散落四方,随着风、随着水渐漂渐远……】
将周雷、胡文斌等红学家叫到家中试听,不仅大家都说好,还被他们鼓动写一篇论文——将葬花吟理解为天问正可说明曹雪芹的创作与屈原与楚辞有很深的渊源。……
再说演唱者陈力——一个外地的业余歌手。之所以选她,同选演员也只选新面孔一样,都是不希望观众在看在听的时候,去联想演员过去的形象、去用已有的形象来理解红楼梦。
仅“枉凝眉”一首曲子,就教了一个多月。从会唱到不会常,到一个字一个字地唱,再到一句一句、连通,最后终于融会贯通。施光南在听过之后说:“你只借了人家一个嗓子。”
历时四年半,从没感到过灵感的惠顾,若说有,那应是在写最后一首“分骨肉”的时候:有一种抑制不住的感情,强迫着自己把它写了下来。 当音乐最后与影相一起录制的时候,躲在家里没敢去看。这些作品是真正的倾心倾力了,有人问再写一遍,回答只能是“跳楼”。
是曹雪芹助我,是感动了上天,“分骨肉”是一次成功,一点不差。(另:红楼梦十三首曲子自写成后没改过一个音)
曾经很喜欢薛宝钗,现实中多几个这样的人大家日子都好过些。现在则喜欢这整部作品,这个有各种各样人物组成的整体。 关于创作的理性与感性:
切忌只有理性没有感性,也切忌只有感性没有理性。曹雪芹的创作,红楼音乐的创作都是如此。音乐更容易表现一些抽象的行而上的东西。创作应是一个不断由具体到抽象、由感性到理性的,再由符合人性的、人们所易于接受的方式表达这基于感性的理性的过程。
关于对自己作品的评价: 我只是希望尽自己最大的努力去筑一道尽可能高的墙,让后代人跨越它时能多费点力气。时代在进步,后代是一定会、也应该去跨越我们这一代的,我只是尽力把这墙筑得高些。
关于希望与寄语: 红楼梦是部好书,值得每一代青年人认真去读。 民族音乐近来不景气,不是不受人们喜欢,而是没能让人们有机会去听去了解。红楼梦音乐会是一种尝试,很好的尝试,应努力使我们的青年更多的了解我们文化的精髓。
欣赏歌曲,一只翅膀是曲、是旋律,另一只翅膀是歌词,歌词的意义应是积极向上的。

IPB Image

母带来自王立平的压箱收藏,天凡版音质远胜爱销版!!!
采用ExactAudioCopy v0.99pb5抓轨,更先进的FLAC无损格式压缩,避免了APE常见的爆音现象,纠正了部分歌曲艺术家的错误,完美原始播放速度,声道正确(爱销错了很郁闷),更高的码率,真正还原CD音质,HIFI享受!!!
2010圣诞到了,新年也到了,所以送给大家这个新年礼物~O(∩_∩)O~
如果大家喜欢请帮助分流,谢谢!!!


IPB Image

IPB Image

IPB Image

IPB Image

IPB Image

IPB Image

这是以上的CUE,可以直接复制到记事本保存,文件名和FLAC文件相同即可,扩展名改为CUE:(如果您的CUE无法正确引导FLAC,请将两个文件重命名(不包括扩展名)为:[红楼梦]-[87原版电视剧主题歌曲]-[经典回顾珍藏版]-[天凡之音])

引用
REM GENRE Other
REM DATE 1995
REM DISCID AB0A940D
REM COMMENT ExactAudioCopy v0.99pb5
PERFORMER "Various"
TITLE "[红楼梦]-[87原版电视剧主题歌曲]-[经典回顾珍藏版]-[天凡之音]"
FILE "[红楼梦]-[87原版电视剧主题歌曲]-[经典回顾珍藏版]-[天凡之音].flac" WAVE
TRACK 01 AUDIO
TITLE "晴雯歌"
PERFORMER "女声合唱"
INDEX 01 00:00:00
TRACK 02 AUDIO
TITLE "聪明累"
PERFORMER "王洁实"
INDEX 01 03:26:73
TRACK 03 AUDIO
TITLE "葬花吟"
PERFORMER "陈力"
INDEX 01 06:25:31
TRACK 04 AUDIO
TITLE "秋窗风雨夕"
PERFORMER "陈力"
INDEX 01 12:32:73
TRACK 05 AUDIO
TITLE "枉凝眉"
PERFORMER "陈力"
INDEX 01 17:00:18
TRACK 06 AUDIO
TITLE "紫菱洲歌"
PERFORMER "陈力"
INDEX 01 20:00:01
TRACK 07 AUDIO
TITLE "叹香菱"
PERFORMER "陈力"
INDEX 01 22:23:15
TRACK 08 AUDIO
TITLE "红豆曲"
PERFORMER "王洁实/陈力"
INDEX 01 25:43:43
TRACK 09 AUDIO
TITLE "序曲"
PERFORMER "合奏"
INDEX 01 30:26:03
TRACK 10 AUDIO
TITLE "引子"
PERFORMER "陈力"
INDEX 01 33:17:01
TRACK 11 AUDIO
TITLE "题帕三绝"
PERFORMER "陈力"
INDEX 01 34:53:65
TRACK 12 AUDIO
TITLE "分骨肉"
PERFORMER "陈力"
INDEX 01 38:37:09
TRACK 13 AUDIO
TITLE "好了歌"
PERFORMER "王立平"
INDEX 01 43:28:24


EAC 抓取日志:
引用

Exact Audio Copy V0.99 prebeta 5 from 4. May 2009

EAC 抓取日志文件从22. 十二月 2010, 14:33

Various / [红楼梦]-[87原版电视剧主题歌曲]-[经典回顾珍藏版]-[天凡之音]

使用驱动器 :TSSTcorpCDDVDW TS-L633C Adapter: 0 ID: 1

读取模式 : 保护
使用精确流 : 是
废除音频缓冲 : 否
使用 C2 指针 : 否

组合读/写偏移校正 : 0
读取 Lead-In 和 Lead-Out : 否
用静音填充抓取中丢失偏移的采样 : 是
去除首尾静音块 : 否
在 CRC 计算中使用了空样本 : 否
已用接口 : Win NT 及 2000 本地 Win32 接口

所用输出格式 : 用户定义的编码器
已选比特率 : 768 kBit/s
质量 : 高
添加 ID3 标签 : 否
命令行压缩器 : C:\Program Files\Exact Audio Copy\FLAC\FLAC.EXE
附加命令行参数 : -6 -V -T "ARTIST=%a" -T "TITLE=%t" -T "ALBUM=%g" -T "DATE=%y" -T "TRACKNUMBER=%n" -T "GENRE=%m" -T "COMMENT=%e" %s -o %d


被抓轨 CD 的 TOC

音轨 | 开始 | 长度 | 起始扇区 | 结尾扇区
--------------------------------------------------
1 | 0:00.00 | 3:26.73 | 0 | 15522
2 | 3:26.73 | 2:58.33 | 15523 | 28905
3 | 6:25.31 | 6:07.42 | 28906 | 56472
4 | 12:32.73 | 4:27.20 | 56473 | 76517
5 | 17:00.18 | 2:59.58 | 76518 | 90000
6 | 20:00.01 | 2:23.14 | 90001 | 100739
7 | 22:23.15 | 3:20.28 | 100740 | 115767
8 | 25:43.43 | 4:42.35 | 115768 | 136952
9 | 30:26.03 | 2:50.73 | 136953 | 149775
10 | 33:17.01 | 1:36.64 | 149776 | 157039
11 | 34:53.65 | 3:43.19 | 157040 | 173783
12 | 38:37.09 | 4:51.15 | 173784 | 195623
13 | 43:28.24 | 1:40.11 | 195624 | 203134


范围状态及错误

已选择范围

文件名 F:\music\[红楼梦]-[87原版电视剧主题歌曲]-[经典回顾珍藏版]-[天凡之音].wav

峰值电平 95.1 %
范围质量 100.0 %
复制 CRC DCCCCA97
复制成功

没有错误发生

状态报告结尾

IPB Image

IPB Image

IPB Image

IPB Image



专辑曲目

01. 晴雯歌
02. 聪明累
03. 葬花吟
04. 秋窗风雨夕
05. 枉凝眉
06. 紫菱洲歌
07. 叹香菱
08. 红豆曲
09. 序曲
10. 引子
11. 题帕三绝
12. 分骨肉
13. 好了歌

正在读取……

这里是其它用户补充的资源(我也要补充):

44779778 2010/12/27 13:33:58 补充
看到近10个朋友一起下载,真的很开心,同时感到自己的2M宽带上传实在不给力……总共才50K/S希望大

该内容尚未提供权利证明,无法提供下载。
正在加载,请稍等...

点击查看所有139网友评论

 

(?) [公告]留口水、评论相关规则 | [活动]每日签到 轻松领取电驴经验

    小贴士:
  1. 类似“顶”、“沙发”之类没有营养的文字,对勤劳贡献的楼主来说是令人沮丧的反馈信息。
  2. 提问之前请再仔细看一遍楼主的说明,或许是您遗漏了。
  3. 勿催片。请相信驴友们对分享是富有激情的,如果确有更新版本,您一定能搜索到。
  4. 请勿到处挖坑绊人、招贴广告。既占空间让人厌烦,又没人会搭理,于人于己都无利。
  5. 如果您发现自己的评论不见了,请参考以上4条。