v

您的位置:VeryCD动漫动漫周边

动漫资源事务区


《玲音宣传DVD LPR-309》(Serial Experiments Lain Promo DVD LPR-309)[DVDRip]

  • 状态: 精华资源
  • 摘要:
    发行时间1998年
    对白语言日语
    文字语言日文
  • 时间: 2010/12/05 23:22:18 发布 | 2010/12/06 13:31:25 更新
  • 分类: 动漫  动漫周边 

灰羽幻

精华资源: 17

全部资源: 17

相关: 分享到新浪微博   转播到腾讯微博   分享到开心网   分享到人人   分享到QQ空间   订阅本资源RSS更新   美味书签  subtitle
该内容尚未提供权利证明,无法提供下载。
中文名玲音宣传DVD LPR-309
英文名Serial Experiments Lain Promo DVD LPR-309
资源格式DVDRip
发行时间1998年
地区日本
对白语言日语
文字语言日文
简介

IPB Image

【动画介绍】

《玲音》(Serial Experiments Lain)是一部试验性动画,于1998年7月6日至9月28日在东京电视台的深夜时段播映,共13集。讲述了一个身处日本的14岁女孩岩仓玲音,以及如何受父亲影响,接触,进而发现了“连线”(Wired,一个国际性计算机网络)之中隐藏的巨大秘密,和自己的神秘身世的故事。原创编剧为小中千昭,原创角色形象设计为安倍吉俊,由岸田隆宏导演,production 2nd制作。在北美的制作发行公司为Geneon,在新加坡的制作发行公司为Odex。

玲音中探讨了神、集体无意识、因特网、阴谋论和唯我论等其他一些经常在赛博朋克作品中出现的主题。喜爱这部作品的人普遍认为这是一部典型的文学性动画。

【资源简介】

LPR-309为一款提供给媒体及商家的非卖品-促销DVD,十分珍贵。内容为三段电影片段以及三首名为“13th floor elevator”的歌曲。
因为歌曲我已经在玲音相关音乐集里發佈过了,所以在这里只发布那三段视频。

【视频信息】

引用

Video #1
ID : 1
Format : AVC
Format/Info : Advanced Video Codec
Format profile : High@L3.1
Format settings, CABAC : Yes
Format settings, ReFrames : 8 frames
Muxing mode : Container profile=Unknown@3.1
Codec ID : V_MPEG4/ISO/AVC
Duration : 4mn 0s
Width : 720 pixels
Height : 480 pixels
Display aspect ratio : 4:3
Original display aspect ratio : 1.500
Frame rate : 23.976 fps
Standard : NTSC
Resolution : 8 bits
Colorimetry : 4:2:0
Scan type : Progressive
Writing library : x264 core 67 r1143kVAQmod 7554705
Encoding settings : cabac=1 / ref=8 / deblock=1:0:0 / analyse=0x3:0x113 / me=tesa / subme=9 / psy_rd=0.0:0.0 / mixed_ref=1 / me_range=24 / chroma_me=1 / trellis=2 / 8x8dct=1 / cqm=0 / deadzone=21,11 / chroma_qp_offset=0 / threads=1 / thread_queue=1 / nr=0 / decimate=1 / mbaff=0 / bframes=6 / b_pyramid=1 / b_adapt=2 / b_bias=0 / direct=1 / wpredb=1 / keyint=120 / keyint_min=1 / scenecut=40 / rc=crf / crf=17.0000 / qcomp=1.00 / qpmin=10 / qpmax=51 / qpstep=4 / ip_ratio=1.40 / pb_ratio=1.30 / aq=1:1.30:0:10.00:1.00:1.00:1.00
Audio #2
ID : 2
Format : AC-3
Format/Info : Audio Coding 3
Codec ID : A_AC3
Duration : 4mn 0s
Bit rate mode : Constant
Bit rate : 384 Kbps
Channel(s) : 6 channels
Channel positions : Front: L C R, Surround: L R, LFE
Sampling rate : 48.0 KHz
Stream size : 11.0 MiB
Audio #3
ID : 3
Format : AC-3
Format/Info : Audio Coding 3
Codec ID : A_AC3
Duration : 4mn 0s
Bit rate mode : Constant
Bit rate : 384 Kbps
Channel(s) : 6 channels
Channel positions : Front: L C R, Surround: L R, LFE
Sampling rate : 48.0 KHz
Stream size : 11.0 MiB
Audio #4
ID : 4
Format : AC-3
Format/Info : Audio Coding 3
Codec ID : A_AC3
Duration : 4mn 0s
Bit rate mode : Constant
Bit rate : 384 Kbps
Channel(s) : 6 channels
Channel positions : Front: L C R, Surround: L R, LFE
Sampling rate : 48.0 KHz
Stream size : 11.0 MiB

因为没有对话,仅有的一些文字图片都是动画里出现过的所以无字幕。

【作品列表】

一共包含三部視頻,每部視頻時長均為4分鐘。

Track 1 - Clip of the real world
Track 2 - Clip of the invisible bridge
Track 3 - Clip of the wired world

每部視頻均有3個音頻流,分別對應本DVD的3首音樂:

01.LPR 309-[01]-13th Floor Elevator - Smile Back version.mp3
02.LPR 309-[02]-13th Floor Elevator - Be Funny To... version.mp3
03.LPR 309-[03]-13th Floor Elevator - Laugh Out version.mp3

【在線預覽】:
注:因為視頻有3個音頻流。土豆等在線預覽只支持一個,所以預覽所用的音頻均為第一首。

Clip of the real world



Track 2 - Clip of the invisible bridge



Track 3 - Clip of the wired world



【供源信息】:

常驻服务器:eDonkeyServer No2(212.63.206.35:4242)
时间:平时每晚11点至次日6点30。周末每晚11点至次日下午1点。

正在读取……

这里是其它用户补充的资源(我也要补充):

暂无补充资源
正在加载,请稍等...

点击查看所有18网友评论

 

(?) [公告]留口水、评论相关规则 | [活动]每日签到 轻松领取电驴经验

    小贴士:
  1. 类似“顶”、“沙发”之类没有营养的文字,对勤劳贡献的楼主来说是令人沮丧的反馈信息。
  2. 提问之前请再仔细看一遍楼主的说明,或许是您遗漏了。
  3. 勿催片。请相信驴友们对分享是富有激情的,如果确有更新版本,您一定能搜索到。
  4. 请勿到处挖坑绊人、招贴广告。既占空间让人厌烦,又没人会搭理,于人于己都无利。
  5. 如果您发现自己的评论不见了,请参考以上4条。