v

您的位置:VeryCD音乐古典音乐

音乐资源事务区


Bohdan Warchal -《部分NAXOS整理》(更新 Brandenburg Concertos Nos. 4, 5 & 6)NAXOS原版抓轨[FLAC]

  • 状态: 精华资源
  • 摘要:
    古典类型室内乐
    发行时间1988年02月
  • 时间: 2010/12/05 20:24:59 发布 | 2011/06/01 23:44:02 更新
  • 分类: 音乐  古典音乐 

CCD_SUB_IMG

精华资源: 1

全部资源: 1

相关: 分享到新浪微博   转播到腾讯微博   分享到开心网   分享到人人   分享到QQ空间   订阅本资源RSS更新   美味书签  subtitle
该内容尚未提供权利证明,无法提供下载。
专辑英文名更新 Brandenburg Concertos Nos. 4, 5 & 6
专辑中文名部分NAXOS整理
艺术家Bohdan Warchal
古典类型室内乐
资源格式FLAC
版本NAXOS原版抓轨
发行时间1988年02月
地区英国
语言英语
简介

IPB Image
这张VeryCD上曾经有人发过,但早已没源, 来自Bohdan Warchal的Brandenburg Concertos 只可惜没找到1-3的 PS:是原版非引进版

IPB Image

IPB Image

专辑介绍:

来自发烧音乐品牌拿索斯公司于1988年录制出版“最浪漫的钢琴曲系列”,选自纵观400余年的音乐大师海德尔、贝多芬、德沃夏克、李斯特、柴可夫斯基等人的精选曲目分为19个音乐小品与你共享浪漫时刻。


======================================
最近整理出好多八几年的CD ,大部分都是NAXOS的,其中发现了不少好东西,当中觉得能被普遍接受欣赏的会不定期的发上来



LOG:

引用

Exact Audio Copy V0.99 prebeta 5 from 4. May 2009

EAC 抓取日志文件从1. ***

Balazs Szokolay / Romantic Piano Favourites Vol.3

使用驱动器 :RWNQTM Z0DEBCDIV Adapter: 2 ID: 0

读取模式 : 保护
使用精确流 : 是
废除音频缓冲 : 是
使用 C2 指针 : 否

组合读/写偏移校正 : 0
读取 Lead-In 和 Lead-Out : 否
用静音填充抓取中丢失偏移的采样 : 是
去除首尾静音块 : 否
在 CRC 计算中使用了空样本 : 否
已用接口 : Win NT 及 2000 本地 Win32 接口

所用输出格式 : 用户定义的编码器
已选比特率 : 768 kBit/s
质量 : 高
添加 ID3 标签 : 否
命令行压缩器 : C:\Program Files\Exact Audio Copy\FLAC\FLAC.EXE
附加命令行参数 : -6 -V -T "ARTIST=%a" -T "TITLE=%t" -T "ALBUM=%g" -T "DATE=%y" -T "TRACKNUMBER=%n" -T "GENRE=%m" -T "COMMENT=%e" %s -o %d


被抓轨 CD 的 TOC

音轨 | 开始 | 长度 | 起始扇区 | 结尾扇区
--------------------------------------------------
1 | 0:00.00 | 4:08.17 | 0 | 18616
2 | 4:08.17 | 7:35.60 | 18617 | 52801
3 | 11:44.02 | 3:50.23 | 52802 | 70074
4 | 15:34.25 | 1:20.67 | 70075 | 76141
5 | 16:55.17 | 1:37.30 | 76142 | 83446
6 | 18:32.47 | 3:01.65 | 83447 | 97086
7 | 21:34.37 | 2:27.13 | 97087 | 108124
8 | 24:01.50 | 2:45.45 | 108125 | 120544
9 | 26:47.20 | 4:50.17 | 120545 | 142311
10 | 31:37.37 | 3:39.70 | 142312 | 158806
11 | 35:17.32 | 1:15.15 | 158807 | 164446
12 | 36:32.47 | 2:45.45 | 164447 | 176866
13 | 39:18.17 | 2:19.45 | 176867 | 187336
14 | 41:37.62 | 2:15.23 | 187337 | 197484
15 | 43:53.10 | 3:26.17 | 197485 | 212951
16 | 47:19.27 | 3:45.33 | 212952 | 229859
17 | 51:04.60 | 1:39.45 | 229860 | 237329
18 | 52:44.30 | 2:42.20 | 237330 | 249499
19 | 55:26.50 | 2:25.57 | 249500 | 260431


范围状态及错误

已选择范围

文件名 C:\Documents and Settings\***\Balazs Szokolay - Romantic Piano Favourites Vol.3.wav

峰值电平 98.6 %
范围质量 99.9 %
测试 CRC 0388CF4E
复制 CRC 0388CF4E
复制成功

没有错误发生

状态报告结尾


引用

Exact Audio Copy V0.99 prebeta 5 from 4. May 2009

EAC 抓取日志文件从1. ***

Takako Nishizaki, violin / Romantic Violin Favourites

使用驱动器 :RWNQTM Z0DEBCDIV Adapter: 2 ID: 0

读取模式 : 保护
使用精确流 : 是
废除音频缓冲 : 是
使用 C2 指针 : 否

组合读/写偏移校正 : 0
读取 Lead-In 和 Lead-Out : 否
用静音填充抓取中丢失偏移的采样 : 是
去除首尾静音块 : 否
在 CRC 计算中使用了空样本 : 否
已用接口 : Win NT 及 2000 本地 Win32 接口

所用输出格式 : 用户定义的编码器
已选比特率 : 768 kBit/s
质量 : 高
添加 ID3 标签 : 否
命令行压缩器 : C:\Program Files\Exact Audio Copy\FLAC\FLAC.EXE
附加命令行参数 : -6 -V -T "ARTIST=%a" -T "TITLE=%t" -T "ALBUM=%g" -T "DATE=%y" -T "TRACKNUMBER=%n" -T "GENRE=%m" -T "COMMENT=%e" %s -o %d


被抓轨 CD 的 TOC

音轨 | 开始 | 长度 | 起始扇区 | 结尾扇区
--------------------------------------------------
1 | 0:00.00 | 3:18.25 | 0 | 14874
2 | 3:18.25 | 2:04.00 | 14875 | 24174
3 | 5:22.25 | 4:56.00 | 24175 | 46374
4 | 10:18.25 | 4:43.00 | 46375 | 67599
5 | 15:01.25 | 3:39.00 | 67600 | 84024
6 | 18:40.25 | 2:57.00 | 84025 | 97299
7 | 21:37.25 | 4:02.00 | 97300 | 115449
8 | 25:39.25 | 4:09.00 | 115450 | 134124
9 | 29:48.25 | 3:19.05 | 134125 | 149054
10 | 33:07.30 | 3:08.70 | 149055 | 163224
11 | 36:16.25 | 2:48.02 | 163225 | 175826
12 | 39:04.27 | 7:19.00 | 175827 | 208751
13 | 46:23.27 | 3:59.73 | 208752 | 226749
14 | 50:23.25 | 2:32.00 | 226750 | 238149
15 | 52:55.25 | 2:10.00 | 238150 | 247899
16 | 55:05.25 | 3:46.00 | 247900 | 264849
17 | 58:51.25 | 4:52.00 | 264850 | 286749
18 | 63:43.25 | 4:02.32 | 286750 | 304931


范围状态及错误

已选择范围

文件名 C:\Documents and Settings\***\Takako Nishizaki, violin - Romantic Violin Favourites.wav

峰值电平 92.9 %
范围质量 100.0 %
测试 CRC 653FA6E0
复制 CRC 653FA6E0
复制成功

没有错误发生

状态报告结尾


引用

Exact Audio Copy V0.99 prebeta 5 from 4. May 2009

EAC 抓取日志文件从1. ***

Bohdan Warchal / Brandenburg Concertos Nos. 4, 5 & 6

使用驱动器 :RWNQTM Z0DEBCDIV Adapter: 2 ID: 0

读取模式 : 保护
使用精确流 : 是
废除音频缓冲 : 是
使用 C2 指针 : 否

组合读/写偏移校正 : 0
读取 Lead-In 和 Lead-Out : 否
用静音填充抓取中丢失偏移的采样 : 是
去除首尾静音块 : 否
在 CRC 计算中使用了空样本 : 否
已用接口 : Win NT 及 2000 本地 Win32 接口

所用输出格式 : 用户定义的编码器
已选比特率 : 768 kBit/s
质量 : 高
添加 ID3 标签 : 否
命令行压缩器 : C:\Program Files\Exact Audio Copy\FLAC\FLAC.EXE
附加命令行参数 : -6 -V -T "ARTIST=%a" -T "TITLE=%t" -T "ALBUM=%g" -T "DATE=%y" -T "TRACKNUMBER=%n" -T "GENRE=%m" -T "COMMENT=%e" %s -o %d


被抓轨 CD 的 TOC

音轨 | 开始 | 长度 | 起始扇区 | 结尾扇区
--------------------------------------------------
1 | 0:00.00 | 7:33.40 | 0 | 34014
2 | 7:33.40 | 4:28.28 | 34015 | 54142
3 | 12:01.68 | 5:42.45 | 54143 | 79837
4 | 17:44.38 | 10:40.22 | 79838 | 127859
5 | 28:24.60 | 6:30.23 | 127860 | 157132
6 | 34:55.08 | 5:34.30 | 157133 | 182212
7 | 40:29.38 | 7:17.22 | 182213 | 215009
8 | 47:46.60 | 5:25.08 | 215010 | 239392
9 | 53:11.68 | 6:19.17 | 239393 | 267834


范围状态及错误

已选择范围

文件名 C:\Documents and Settings\***\Bohdan Warchal - Brandenburg Concertos Nos. 4, 5 & 6.wav

峰值电平 85.8 %
范围质量 100.0 %
测试 CRC A1B7C885
复制 CRC A1B7C885
复制成功

没有错误发生

状态报告结尾



专辑曲目

Romantic Piano Favourites Vol.3

01. Suite No. 5 in E major: Air with Variations, "Harmonious Blacksmith" 00:04:08
02. Andante in F major, WoO 57, 'Andante favori' 00:07:36
03. Slavonic Dance No. 1 in C major, Op. 46, No. 1 00:03:50
04. Waltz in A flat major, Op. 39, No. 15 00:01:21
05. No. 19: Little Romance. No. 10: Merry Pleasant 00:01:37
06. Lyric Pieces Op. 54, No. 3: March of the Trolls 00:03:02
07. Souvenir de Hapsal, Op. 2: No. 3. Song without Words in F major 00:02:27
08. Etincelles, op. 36: Sparks 00:02:46
09. Die schone Mullerin, Op. 25, D. 795: No. 19. Der Muller und der Bach (The Miller and the Brook) 00:04:50
10. Menuet celebre in G major 00:03:40
11. The Tale of Tsar Saltan: Flight of the Bumble - bee 00:01:15
12. Carnival of the Animals: XIII. Le Cygne (The Swan) (arr. for piano solo) 00:02:46
13. Song without Words, Op. 62, No. 6: Spring Song 00:02:19
14. Lyric Pieces, Op. 43, No. 6: To Spring 00:02:16
15. La plus que lente (Valse) 00:03:26
16. Caprice Viennois, Op. 2 00:03:45
17. Polka italienne 00:01:40
18. Souvenir in D major 00:02:42
19. Concert Etude in F minor, 'Capriccio' 00:02:26

Romantic Violin Favourites

01.Schubert / Ballet Music from Rosamunde
02.Bizet / Adagietto from L'Arlesienne
03.Rimsky Korsakov / Hymn to the Sun from The Golde Cockerel
04.Handel / Largo (Ombra mai fu) from Serse
05.Rimsky Korsakov / Hindu Song from Sadko
06.Dvorak / Songs My Mother Taught Me (Gypsy Song No. 4)
07.Rimsky Korsakov / Oriental Dance from Scheherazade
08.Rimsky Korsakov / Arabian Song from Scheherazade
09.Gluck / Melody (Dance of the Blessed Spirits) from Orfeo & Euridice
10.Haydn / Hungarian Rondo from Piano Trio in G
11.Haydn / Austrian Imperial Hymn
12.Mozart / Rondo from Haffner Serenade
13.Schumann / Romance from Op. 94
14.Grieg / To the Spring from Lyric Pieces
15.Rameau / Tambourin
16.Grainger / Molly on the Shore
17.Song of the Volga Boatmen (Traditional)
18.Londonderry Air (Traditional)

Brandenburg Concertos Nos. 4, 5 & 6

01. Concerto No. 4 in G major, BWV 1049: I. Allegro
02. Concerto No. 4 in G major, BWV 1049: II. Andante
03. Concerto No. 4 in G major, BWV 1049: III. Presto
04. Concerto No. 5 in D major, BWV 1050: I. Allegro
05. Concerto No. 5 in D major, BWV 1050: II. Affetuoso
06. Concerto No. 5 in D major, BWV 1050: III. Allegro
07. Concerto No. 6 in B flat major, BWV 1051: I. Allegro
08. Concerto No. 6 in B flat major, BWV 1051: II. Adagio ma non troppo
09. Concerto No. 6 in B flat major, BWV 1051: III. Allegro

正在读取……

这里是其它用户补充的资源(我也要补充):

暂无补充资源
正在加载,请稍等...

点击查看所有38网友评论

 

(?) [公告]留口水、评论相关规则 | [活动]每日签到 轻松领取电驴经验

    小贴士:
  1. 类似“顶”、“沙发”之类没有营养的文字,对勤劳贡献的楼主来说是令人沮丧的反馈信息。
  2. 提问之前请再仔细看一遍楼主的说明,或许是您遗漏了。
  3. 勿催片。请相信驴友们对分享是富有激情的,如果确有更新版本,您一定能搜索到。
  4. 请勿到处挖坑绊人、招贴广告。既占空间让人厌烦,又没人会搭理,于人于己都无利。
  5. 如果您发现自己的评论不见了,请参考以上4条。