v

您的位置:VeryCD音乐演唱会

音乐资源事务区


alan -《1st concert tour -voice of you- in TOKYO》[DVDRip]

  • 状态: 精华资源
  • 摘要:
    发行时间2010年3月27日
    语言日语
  • 时间: 2010/12/02 16:46:25 发布 | 2010/12/07 14:08:25 更新
  • 分类: 音乐  演唱会 

zhangzhiyuan100

精华资源: 9

全部资源: 10

相关: 分享到新浪微博   转播到腾讯微博   分享到开心网   分享到人人   分享到QQ空间   订阅本资源RSS更新   美味书签  subtitle
该内容尚未提供权利证明,无法提供下载。
专辑中文名1st concert tour -voice of you- in TOKYO
歌手alan
资源格式DVDRip
发行时间2010年3月27日
地区日本
语言日语
简介

IPB Image

内容介绍:

2007年11月出道至今两年的alan,终于完成了让歌迷期待已久的首次个人巡回演唱会。
2010年1月在东京、名古屋、大阪三地分别举行的日本巡演之中,
1月24日在东京昭和女子大学•人见记念堂的演出被完整收录在这张DVD内!

之前发布的MP3音频流广受好评,应要求发布小档视频,如需无损或者大档请去
阿兰达瓦卓玛吧下载!
见证alan用声音征服你的奇迹!

视频参数:

引用
General
Complete name : alan.-.[1st concert -voice of you- in TOKYO].演唱会.(DVDRip).mkv
Format : Matroska
File size : 1.58 GiB
Duration : 1h 55mn
Overall bit rate : 1 949 Kbps
Movie name : alan.-.[1st concert -voice of you- in TOKYO].concert.DVDRip.AC3 by ZZy
Encoded date : UTC 2010-11-18 17:07:28
Writing application : mkvmerge v4.1.1 ('Bouncin' Back') built on Jul 3 2010 22:54:08
Writing library : libebml v1.0.0 + libmatroska v1.0.0
Video #1
ID : 1
Format : AVC
Format/Info : Advanced Video Codec
Format profile : High@L3.1
Format settings, CABAC : Yes
Format settings, ReFrames : 10 frames
Muxing mode : Container profile=Unknown@3.1
Codec ID : V_MPEG4/ISO/AVC
Duration : 1h 55mn
Bit rate : 1 500 Kbps
Width : 720 pixels
Height : 480 pixels
Display aspect ratio : 16:9
Frame rate : 29.970 fps
Standard : NTSC
Color space : YUV
Chroma subsampling : 4:2:0
Bit depth : 8 bits
Scan type : Progressive
Bits/(Pixel*Frame) : 0.145
Stream size : 1.18 GiB (75%)
Writing library : x264 core 100 r1659 57b2e56
Encoding settings : cabac=1 / ref=10 / deblock=1:-1:-1 / analyse=0x3:0x113 / me=umh / subme=9 / psy=1 / psy_rd=1.00:0.00 / mixed_ref=1 / me_range=16 / chroma_me=1 / trellis=2 / 8x8dct=1 / cqm=0 / deadzone=21,11 / fast_pskip=0 / chroma_qp_offset=-2 / threads=6 / sliced_threads=0 / nr=0 / decimate=0 / interlaced=0 / constrained_intra=0 / bframes=3 / b_pyramid=2 / b_adapt=2 / b_bias=0 / direct=3 / weightb=1 / open_gop=0 / weightp=2 / keyint=250 / keyint_min=25 / scenecut=40 / intra_refresh=0 / rc_lookahead=60 / rc=2pass / mbtree=1 / bitrate=1500 / ratetol=1.0 / qcomp=0.60 / qpmin=10 / qpmax=51 / qpstep=4 / cplxblur=20.0 / qblur=0.5 / ip_ratio=1.40 / aq=1:1.00
Language : English
Audio #2
ID : 2
Format : AC-3
Format/Info : Audio Coding 3
Mode extension : CM (complete main)
Muxing mode : Header stripping
Codec ID : A_AC3
Duration : 1h 55mn
Bit rate mode : Constant
Bit rate : 448 Kbps
Channel(s) : 6 channels
Channel positions : Front: L C R, Side: L R, LFE
Sampling rate : 48.0 KHz
Bit depth : 16 bits
Stream size : 371 MiB (23%)



专辑曲目

01. 天女 ~interlude~
02. 群青の谷
03. One
04. Beauty ~空唄~ Lost Child
05. Swear
06. Call my name
07. 千年の虹
08. BALLAD ~名もなき恋のうた~
09. sign
10. 明日への讃歌
11. Nobody knows but me
12. Qing Zang Gao Yuan
13. 幸せの鐘
14. 久远の河
15. 心・戦 ~RED CLIFF~
16. 绊
17. 恵みの雨
18. my life
19. Together-Encore-
20. Diamond-Encore-
21. 懐かしい未来 ~longing future~-Encore-

正在读取……

这里是其它用户补充的资源(我也要补充):

暂无补充资源
正在加载,请稍等...

点击查看所有49网友评论

 

(?) [公告]留口水、评论相关规则 | [活动]每日签到 轻松领取电驴经验

    小贴士:
  1. 类似“顶”、“沙发”之类没有营养的文字,对勤劳贡献的楼主来说是令人沮丧的反馈信息。
  2. 提问之前请再仔细看一遍楼主的说明,或许是您遗漏了。
  3. 勿催片。请相信驴友们对分享是富有激情的,如果确有更新版本,您一定能搜索到。
  4. 请勿到处挖坑绊人、招贴广告。既占空间让人厌烦,又没人会搭理,于人于己都无利。
  5. 如果您发现自己的评论不见了,请参考以上4条。