v

您的位置:VeryCD音乐演唱会

音乐资源事务区


绚香(Ayaka) -《MTV Unplugged Ayaka》repack(修正)[DVDRip]

  • 状态: 精华资源
  • 摘要:
    发行时间2010年1月13日
    语言日语
  • 时间: 2010/12/02 16:21:13 发布 | 2010/12/17 13:06:52 更新
  • 分类: 音乐  演唱会 

zhangzhiyuan100

精华资源: 9

全部资源: 10

相关: 分享到新浪微博   转播到腾讯微博   分享到开心网   分享到人人   分享到QQ空间   订阅本资源RSS更新   美味书签  subtitle
该内容尚未提供权利证明,无法提供下载。
专辑中文名MTV Unplugged Ayaka
歌手绚香(Ayaka)
资源格式DVDRip
版本repack(修正)
发行时间2010年1月13日
地区日本
语言日语
简介

IPB Image

内容介绍:

11月18日,绚香在老家的大阪城大厅举行了休养前的最后一场个人表演——《MTV Unplugged Ayaka》。演唱会上,绚香演唱了《Winding Road》等13首歌曲,而绚香的丈夫、人气男星水岛宏也全程坐在观众前席上观看妻子的演出。

日本创作才女绚香为专心治病,早前宣布今年内会无期限休止音乐活动。11月18日,绚香在老家的大阪城大厅举行了休养前的最后一场个人表演——《MTV Unplugged Ayaka》。演唱会上,绚香向聚集在会场的一万多名粉丝表示:“我一直期待着今天,能够和大家见面我觉得很幸福。”当晚,她演唱了《Winding Road》等13首歌曲,而绚香的丈夫、人气男星水岛宏也全程坐在观众前席上观看妻子的演出。

绚香当晚一登场,粉丝们就热烈地欢呼“欢迎回来”。身穿一袭黑色长裙的她也笑着回应道“我回来了!”。同时,她也回顾道:“在我11岁的时候,在这个地方观看Janet Jackson的演唱会,那是我人生中观看的首场Live,也确立了我要当歌手的决心。”

演唱会高潮时,绚香演唱了最新单曲《大家的天空下》,演唱中她激动地表示:“今天的演唱会是我休养前的最后一场表演,我觉得这同时也是我的新开始。今后我将会以自己的步调继续前进,以能够与大家再次重逢为目标,笑着度过每一天。”最后绚香也忍不住落泪,退场时候还向粉丝们大力挥手道别致谢。

视频参数:

引用

General
Complete name : 绚香(ayaka).-.[MTV.Unplugged.Ayaka].演唱会.(DVDRip).repack.mkv
Format : Matroska
File size : 1.41 GiB
Duration : 1h 29mn
Overall bit rate : 2 254 Kbps
Movie name : 绚香(ayaka).-.[MTV.Unplugged.Ayaka].演唱会.(DVDRip).repack.By ZZy
Encoded date : UTC 2010-12-17 04:11:53
Writing application : mkvmerge v4.1.1 ('Bouncin' Back') 编译于 Jul 3 2010 22:54:08
Writing library : libebml v1.0.0 + libmatroska v1.0.0
Video #1
ID : 1
Format : AVC
Format/Info : Advanced Video Codec
Format profile : High@L5.1
Format settings, CABAC : Yes
Format settings, ReFrames : 10 frames
Format settings, GOP : M=1, N=60
Muxing mode : Container profile=Unknown@5.1
Codec ID : V_MPEG4/ISO/AVC
Duration : 1h 29mn
Bit rate : 1 500 Kbps
Width : 720 pixels
Height : 480 pixels
Display aspect ratio : 16:9
Frame rate : 29.970 fps
Standard : NTSC
Color space : YUV
Chroma subsampling : 4:2:0
Bit depth : 8 bits
Scan type : Progressive
Bits/(Pixel*Frame) : 0.145
Stream size : 933 MiB (65%)
Writing library : x264 core 102 r1666 d058f37
Encoding settings : cabac=1 / ref=10 / deblock=1:-1:-1 / analyse=0x3:0x113 / me=umh / subme=9 / psy=1 / psy_rd=1.00:0.00 / mixed_ref=1 / me_range=16 / chroma_me=1 / trellis=2 / 8x8dct=1 / cqm=0 / deadzone=21,11 / fast_pskip=0 / chroma_qp_offset=-2 / threads=3 / sliced_threads=0 / nr=0 / decimate=0 / interlaced=0 / constrained_intra=0 / bframes=3 / b_pyramid=2 / b_adapt=2 / b_bias=0 / direct=3 / weightb=1 / open_gop=0 / weightp=2 / keyint=250 / keyint_min=25 / scenecut=40 / intra_refresh=0 / rc_lookahead=60 / rc=2pass / mbtree=1 / bitrate=1500 / ratetol=1.0 / qcomp=0.60 / qpmin=10 / qpmax=51 / qpstep=4 / cplxblur=20.0 / qblur=0.5 / ip_ratio=1.40 / aq=1:1.00
Language : English
Audio #2
ID : 2
Format : DTS
Format/Info : Digital Theater Systems
Muxing mode : Header stripping
Codec ID : A_DTS
Duration : 1h 29mn
Bit rate mode : Constant
Bit rate : 755 Kbps
Channel(s) : 6 channels
Channel positions : Front: L C R, Side: L R, LFE
Sampling rate : 48.0 KHz
Bit depth : 24 bits
Stream size : 484 MiB (33%)



专辑曲目

01. Jewlry day
02. I believe
03. 手をつなごう
04. Why
05. グンナイベイビー
06. ブルーデイズ
07. 三日月
08. おかえり
09. 梦を味方に
10. ありがとう
11. WINDING ROAD
12. みんな空の下

正在读取……

这里是其它用户补充的资源(我也要补充):

暂无补充资源
正在加载,请稍等...

点击查看所有67网友评论

 

(?) [公告]留口水、评论相关规则 | [活动]每日签到 轻松领取电驴经验

    小贴士:
  1. 类似“顶”、“沙发”之类没有营养的文字,对勤劳贡献的楼主来说是令人沮丧的反馈信息。
  2. 提问之前请再仔细看一遍楼主的说明,或许是您遗漏了。
  3. 勿催片。请相信驴友们对分享是富有激情的,如果确有更新版本,您一定能搜索到。
  4. 请勿到处挖坑绊人、招贴广告。既占空间让人厌烦,又没人会搭理,于人于己都无利。
  5. 如果您发现自己的评论不见了,请参考以上4条。