v

您的位置:VeryCD动漫剧场动画

动漫资源事务区


《魔法少女奈叶剧场版1st》(Magical Girl Lyrical Nanoha Movie 1st)[bwfjc][MP4-720P][BDRip]

  • 状态: 精华资源
  • 摘要:
    发行时间2010年11月
    语言日语
  • 时间: 2010/12/01 18:24:31 发布 | 2010/12/04 23:17:54 更新
  • 分类: 动漫  剧场动画 

神奎托斯

精华资源: 40

全部资源: 46

相关: 分享到新浪微博   转播到腾讯微博   分享到开心网   分享到人人   分享到QQ空间   订阅本资源RSS更新   美味书签  subtitle
该内容尚未提供权利证明,无法提供下载。
中文名魔法少女奈叶剧场版1st
英文名Magical Girl Lyrical Nanoha Movie 1st
资源格式BDRip
版本[bwfjc][MP4-720P]
发行时间2010年11月
地区日本
语言日语
简介

IPB Image
【首播时间】
2010年1月23日
【字幕制作】
bwfjc繁体外挂字幕

【主题曲目】
OP「PHANTOM MINDS」
作词 - 水树奈々 / 作曲 - 吉木絵里子 / 编曲 - 陶山隼 / 歌 - 水树奈々
ED「My wish My love」
作词:椎名可怜 / 作曲・编曲:太田雅友 / 歌 - 田村ゆかり
插曲「Don't be long」
作词・作曲・编曲 - 矢吹俊郎 / 歌 - 水树奈々

引用
神奎托斯编辑上传,其他资源请点击我: http://home.VeryCD.com/?6298050

啊 720P出炉了,我搬运都花了不少时间 更何况人家翻译加压制!



【动漫简介】(蓝色为作者的话)
平凡的小学三年生高町奈叶,发现从异世界米得基鲁达来的尤诺·斯克莱亚受伤而倒下。他来到这个世界的理由。那因为是他挖掘到太古遗产(平行次元中存在的高度科技的文明的遗产)“宝石之源”分散到“这个世界”。知道了这个情况的高町奈叶,成为与尤诺一起收集宝石之源然后封印的魔法少女。最终在时空管理局里工作。(官方介绍,来看剧场的有爱fans们也不用我来介绍了吧)

一句话简介:讲述了一个内心寂寞,○[嗶-]求不满的小loli(其实是暴君)开地图炮征服炮友的故事(无误?大误?)

bwfjcのひとこと:本片内含两条音轨:正片音轨+声优评论音轨
声优评论音轨的翻译据说有组做了 那我就不做了
如果没人接手 到时候我再补上吧

另外关於菲特的新技能Spark smasher 使用了雪飘的翻译 雷耀震破
在此向雪飘的辛勤劳动表示感谢
Glaive form 我翻译成 阔刃形态 理由如下
Glaive是大刀 阔剑之意 联繫下面莉妮丝描述雷光战斧的那句话
"既是斧 亦是枪 可谓斩断一切的闪光之刃" 故译作“阔刃形态”
此外奈叶的“cannon mode”顺应大潮 换成“炮击模式”
如有更好的翻译请联繫邮箱:bwfjc007@qq.com 或者在论坛PM Thanks
当然 作品的报错(挑错也没问题)或者关於作品的任何建议都是大力欢迎的

最后附上BD原盘地址 70G 大硬盘大水管上吧
http://www.shareraw.com/2010/11/28/bdmv101...1st.html
http://www.megaupload.com/?f=DXEGZHNF


【文件信息】
代码

      Format : MPEG-4
      Format profile : Base Media
      Codec ID : isom
      File size : 2.24 GiB
      Duration : 2h 10mn
      Overall bit rate : 2 462 Kbps
      Encoded date : UTC 2010-11-28 11:35:24
      Tagged date : UTC 2010-11-28 11:35:24
   Video #1
      ID : 1
      Format : AVC
      Format/Info : Advanced Video Codec
      Format profile : High@L3.1
      Format settings, CABAC : Yes
      Format settings, ReFrames : 4 frames
      Codec ID : avc1
      Codec ID/Info : Advanced Video Coding
      Duration : 2h 10mn
      Bit rate mode : Variable
      Bit rate : 2 041 Kbps
      Maximum bit rate : 10.6 Mbps
      Width : 1 280 pixels
      Height : 720 pixels
      Display aspect ratio : 16:9
      Frame rate mode : Constant
      Frame rate : 23.976 fps
      Resolution : 24 bits
      Colorimetry : 4:2:0
      Scan type : Progressive
      Bits/(Pixel*Frame) : 0.092
      Stream size : 1.86 GiB (83%)
      Title : Imported with GPAC 0.4.6-DEV (internal rev. 5)
      Writing library : x264 core 98 r1649 20cbe10
      Encoding settings : cabac=1 / ref=3 / deblock=1:0:0 / analyse=0x3:0x113 / me=hex / subme=7 / psy=1 / psy_rd=1.00:0.00 / mixed_ref=1 / me_range=16 / chroma_me=1 / trellis=1 / 8x8dct=1 / cqm=0 / deadzone=21,11 / fast_pskip=1 / chroma_qp_offset=-2 / threads=12 / sliced_threads=0 / nr=0 / decimate=1 / interlaced=0 / constrained_intra=0 / bframes=3 / b_pyramid=2 / b_adapt=1 / b_bias=0 / direct=1 / weightb=1 / weightp=2 / keyint=250 / keyint_min=25 / scenecut=40 / intra_refresh=0 / rc_lookahead=40 / rc=crf / mbtree=1 / crf=19.0 / qcomp=0.60 / qpmin=10 / qpmax=51 / qpstep=4 / ip_ratio=1.40 / aq=1:1.00
      Encoded date : UTC 2010-11-28 11:17:02
      Tagged date : UTC 2010-11-28 11:40:15
   Audio #2
      ID : 2
      Format : AAC
      Format/Info : Advanced Audio Codec
      Format version : Version 4
      Format profile : LC
      Format settings, SBR : No
      Codec ID : 40
      Duration : 2h 10mn
      Bit rate mode : Variable
      Bit rate : 224 Kbps
      Maximum bit rate : 230 Kbps
      Channel(s) : 2 channels
      Channel positions : L R
      Sampling rate : 48.0 KHz
      Resolution : 16 bits
      Stream size : 209 MiB (9%)
      Language : Japanese
      Encoded date : UTC 2010-11-28 11:37:42
      Tagged date : UTC 2010-11-28 11:40:15
   Audio #3
      ID : 3
      Format : AAC
      Format/Info : Advanced Audio Codec
      Format version : Version 4
      Format profile : LC
      Format settings, SBR : No
      Codec ID : 40
      Duration : 2h 10mn
      Bit rate mode : Variable
      Bit rate : 192 Kbps
      Maximum bit rate : 201 Kbps
      Channel(s) : 2 channels
      Channel positions : L R
      Sampling rate : 48.0 KHz
      Resolution : 16 bits
      Stream size : 179 MiB (8%)
      Encoded date : UTC 2010-11-28 11:39:36
      Tagged date : UTC 2010-11-28 11:40:15


【动漫截图】
IPB Image

IPB Image

正在读取……

这里是其它用户补充的资源(我也要补充):

暂无补充资源
正在加载,请稍等...

点击查看所有12网友评论

 

(?) [公告]留口水、评论相关规则 | [活动]每日签到 轻松领取电驴经验

    小贴士:
  1. 类似“顶”、“沙发”之类没有营养的文字,对勤劳贡献的楼主来说是令人沮丧的反馈信息。
  2. 提问之前请再仔细看一遍楼主的说明,或许是您遗漏了。
  3. 勿催片。请相信驴友们对分享是富有激情的,如果确有更新版本,您一定能搜索到。
  4. 请勿到处挖坑绊人、招贴广告。既占空间让人厌烦,又没人会搭理,于人于己都无利。
  5. 如果您发现自己的评论不见了,请参考以上4条。