v

您的位置:VeryCD动漫剧场动画

动漫资源事务区


《魔法少女奈叶剧场版1st》(Magical Girl Lyrical Nanoha Movie 1st)[bwfjc][RMVB-480P][DVDRip]

  • 状态: 精华资源
  • 摘要:
    发行时间2010年11月
    语言日语
  • 时间: 2010/11/27 20:24:32 发布 | 2010/11/28 01:09:31 更新
  • 分类: 动漫  剧场动画 

神奎托斯

精华资源: 40

全部资源: 46

相关: 分享到新浪微博   转播到腾讯微博   分享到开心网   分享到人人   分享到QQ空间   订阅本资源RSS更新   美味书签  subtitle
该内容尚未提供权利证明,无法提供下载。
中文名魔法少女奈叶剧场版1st
英文名Magical Girl Lyrical Nanoha Movie 1st
资源格式DVDRip
版本[bwfjc][RMVB-480P]
发行时间2010年11月
地区日本
语言日语
简介

IPB Image
【首播时间】
2010年1月23日
【字幕制作】
bwfjc繁体内嵌

【主题曲目】
OP「PHANTOM MINDS」
作词 - 水树奈々 / 作曲 - 吉木絵里子 / 编曲 - 陶山隼 / 歌 - 水树奈々
ED「My wish My love」
作词:椎名可怜 / 作曲・编曲:太田雅友 / 歌 - 田村ゆかり
插曲「Don't be long」
作词・作曲・编曲 - 矢吹俊郎 / 歌 - 水树奈々

引用
神奎托斯编辑上传,其他资源请点击我: http://home.VeryCD.com/?6298050

嘛~又是bwfjc同学的作品(不知道你哪来这么多精力...) 大家感谢之!



【动漫简介】(蓝色为作者的话)
平凡的小学三年生高町奈叶,发现从异世界米得基鲁达来的尤诺·斯克莱亚受伤而倒下。他来到这个世界的理由。那因为是他挖掘到太古遗产(平行次元中存在的高度科技的文明的遗产)“宝石之源”分散到“这个世界”。知道了这个情况的高町奈叶,成为与尤诺一起收集宝石之源然后封印的魔法少女。最终在时空管理局里工作。(官方介绍,来看剧场的有爱fans们也不用我来介绍了吧)

一句话简介:讲述了一个内心寂寞,○[嗶-]求不满的小loli(其实是暴君)开地图炮征服炮友的故事(无误?大误?)

【文件信息】
代码

      Format : RealMedia
      File size : 671 MiB
      Duration : 2h 10mn
      Overall bit rate : 705 Kbps
      Performer : bwfjc
   Video #1
      ID : 1
      Format : RealVideo 4
      Codec ID : RV40
      Codec ID/Info : Based on AVC (H.264), Real Player 9
      Duration : 2h 10mn
      Bit rate : 641 Kbps
      Width : 848 pixels
      Height : 480 pixels
      Display aspect ratio : 16:9
      Frame rate : 23.000 fps
      Resolution : 12 bits
      Bits/(Pixel*Frame) : 0.069
      Stream size : 597 MiB (89%)
   Audio #0
      ID : 0
      Format : AAC
      Format/Info : Advanced Audio Codec
      Codec ID : raac
      Codec ID/Info : Real Player 9
      Duration : 2h 10mn
      Bit rate : 64.0 Kbps
      Channel(s) : 2 channels
      Sampling rate : 32.0 KHz
      Resolution : 16 bits
      Stream size : 59.6 MiB (9%)


【动漫截图】
IPB Image

IPB Image

正在读取……

这里是其它用户补充的资源(我也要补充):

暂无补充资源
正在加载,请稍等...

点击查看所有16网友评论

 

(?) [公告]留口水、评论相关规则 | [活动]每日签到 轻松领取电驴经验

    小贴士:
  1. 类似“顶”、“沙发”之类没有营养的文字,对勤劳贡献的楼主来说是令人沮丧的反馈信息。
  2. 提问之前请再仔细看一遍楼主的说明,或许是您遗漏了。
  3. 勿催片。请相信驴友们对分享是富有激情的,如果确有更新版本,您一定能搜索到。
  4. 请勿到处挖坑绊人、招贴广告。既占空间让人厌烦,又没人会搭理,于人于己都无利。
  5. 如果您发现自己的评论不见了,请参考以上4条。