v

您的位置:VeryCD音乐演唱会

音乐资源事务区


ZARD -《What a beautiful moment》封装字幕[DVDRip]

  • 状态: 精华资源
  • 摘要:
    发行时间2005年06月08日
    语言日语
  • 时间: 2010/11/20 08:35:14 发布 | 2010/11/22 09:26:52 更新
  • 分类: 音乐  演唱会 

zhangzhiyuan100

精华资源: 9

全部资源: 10

相关: 分享到新浪微博   转播到腾讯微博   分享到开心网   分享到人人   分享到QQ空间   订阅本资源RSS更新   美味书签  subtitle
该内容尚未提供权利证明,无法提供下载。
专辑中文名What a beautiful moment
歌手ZARD
资源格式DVDRip
版本封装字幕
发行时间2005年06月08日
地区日本
语言日语
简介

IPB Image

内容介绍:

ZARD以主唱坂井泉水为中心结成。1991年2月以单曲“Good-bye My Loneliness”出道。以充满清凉感的节奏、容易使人产生共鸣的歌词、还有优美的旋律当之无愧的获得排行榜第一位,成为成功之初。此后的单曲“没有你”“摇动的梦想”等数首劲曲都超越最初成绩,逐年发行。2001年11月发行了纪念出道10周年的最佳专辑“ZARD BLEND II ~LEAF & SNOW~”

2004年,出道14年的ZARD终于揭开神秘的面纱,于3月在东京和大阪举行三场演唱会《What a beautiful moment Tour》,所有门票在两分钟内迅速售罄,歌迷热烈的反应令演唱会的场数追加两次至11场,并在名古屋、神户、仙台等多个大城市举行。在演唱会中,坂井泉水率领其他17位音乐人,以美妙的歌声为歌迷带来期待已久的精彩演出。在歌迷的强烈要求下,LIVE DVD终于在一年后推出,当中收录了ZARD在演唱会中演唱的21首名曲,包括「Makenaide」(不要认输),「Hitomi wo tojiite」(闭上眼睛) 「My Friend」,「Kokoro wo aite」(打开心扉)等。

ZARD SUPPORT MEMBERS:

Electric Guitar: 大贺好修(from OOM)
Electric Guitar: 绵贯正顕、冈本仁志(from GARNET CROW)
Bass: 麻井寛史(from the★tambourines)
Keyboards: 古井弘人(from GARNET CROW)、大楠雄蔵(from OOM)
Acoustic Guitar & Chorus: 岩井勇一郎(from db)、大田绅一郎(from doa)
Chorus: 冈崎雪、SATIN DOLL(Megu,Miki,Kayo)
Violin: 高久知也
Saxophone: 铃木ひさつぐ、胜田一树(from DIMENSION)*ダブルキャスト
Percussion: 车谷启介(from db)
Drums: David C. Brown (from EXPERIENCE)
Manipulator: 大藪 拓(from db )  
*Instrumental(「Good-bye My Loneliness」,「君に逢いたくなったら…」,
「きっと忘れない」)によるメンバー绍介も収録!!

视频截图:

演唱会正片(CD1)
IPB Image

演唱会花絮(CD2)
IPB Image

参数:

引用

ZARD.-.[What a beautiful moment].concert.x264.DVDRip.AC3.mkv
Format : Matroska
File size : 1.09 GiB
Duration : 1h 47mn
Overall bit rate : 1 445 Kbps
Movie name : ZARD - [What a beautiful moment] rip by ZZy
Encoded date : UTC 2010-11-17 14:09:43
Writing application : mkvmerge v4.1.1 ('Bouncin' Back') built on Jul 3 2010 22:54:08
Writing library : libebml v1.0.0 + libmatroska v1.0.0
Video #1
ID : 1
Format : AVC
Format/Info : Advanced Video Codec
Format profile : High@L3.1
Format settings, CABAC : Yes
Format settings, ReFrames : 10 frames
Muxing mode : Container profile=Unknown@3.1
Codec ID : V_MPEG4/ISO/AVC
Duration : 1h 47mn
Bit rate : 1 000 Kbps
Width : 708 pixels
Height : 358 pixels
Display aspect ratio : 16:9
Frame rate : 29.970 fps
Color space : YUV
Chroma subsampling : 4:2:0
Bit depth : 8 bits
Scan type : Progressive
Bits/(Pixel*Frame) : 0.132
Stream size : 746 MiB (67%)
Writing library : x264 core 100 r1659 57b2e56
Encoding settings : cabac=1 / ref=10 / deblock=1:-1:-1 / analyse=0x3:0x113 / me=umh / subme=9 / psy=1 / psy_rd=1.00:0.00 / mixed_ref=1 / me_range=16 / chroma_me=1 / trellis=2 / 8x8dct=1 / cqm=0 / deadzone=21,11 / fast_pskip=0 / chroma_qp_offset=-2 / threads=6 / sliced_threads=0 / nr=0 / decimate=0 / interlaced=0 / constrained_intra=0 / bframes=4 / b_pyramid=2 / b_adapt=2 / b_bias=0 / direct=3 / weightb=1 / open_gop=0 / weightp=2 / keyint=250 / keyint_min=25 / scenecut=40 / intra_refresh=0 / rc_lookahead=60 / rc=2pass / mbtree=1 / bitrate=1000 / ratetol=1.0 / qcomp=0.60 / qpmin=10 / qpmax=51 / qpstep=4 / cplxblur=20.0 / qblur=0.5 / ip_ratio=1.40 / aq=1:1.00
Language : English
Audio #2
ID : 2
Format : AC-3
Format/Info : Audio Coding 3
Mode extension : CM (complete main)
Muxing mode : Header stripping
Codec ID : A_AC3
Duration : 1h 47mn
Bit rate mode : Constant
Bit rate : 448 Kbps
Channel(s) : 6 channels
Channel positions : Front: L C R, Side: L R, LFE
Sampling rate : 48.0 KHz
Bit depth : 16 bits
Stream size : 345 MiB (31%)
Text #3
ID : 3
Format : UTF-8
Codec ID : S_TEXT/UTF8
Codec ID/Info : UTF-8 Plain Text



发布感言:

首先,向各位跟我一样经常早出晚归的亚运志愿者同事致以真诚的慰问!!!
然后,很感谢pkbanana不辞劳苦能为我这位素不相识的校友提供援助!!
接着,例行强烈谴责万恶的校园网在上传带宽方面一减再减,直到8K/s!!!同时希望各位先不要直接从ed2k链接下载,先到115处下载好然后以自愿为原则为这个资源分流!!
Last but not least,感谢一直以来为我学习压片提供各种技术援助的大大。本资源的片源采用D9原盘,演唱会封装了由我和舍友仔细校对的字幕,可能该有一些瑕疵O(∩_∩)O...,x264编码,不过由于本人技术尚浅(业余中的业余),本资源的质量还是需要各位压片的大大强烈批评一番!!


分流链接见回复——尊重管理员的建议,大家努力顶高这个分流帖子



专辑曲目

CD 1

01.揺れる想い
02.この爱に泳ぎ疲れても
03.もう少し あと少し…
04.あの微笑みを忘れないで
05.世界はきっと未来の中
06.You and me(and…)
07.もっと近くで君の横顔见ていたい
08.明日を梦见て
09.瞳闭じて
10.心を开いて
11.あなたを感じていたい
12.爱が见えない
13.Today is another day
14.来年の夏も
15.My Baby Grand-ぬくもりが欲しくて-
16.君がいない
17.マイフレンド
18.负けないで
19.Pray
20.止まっていた时计が今动き出した
21.Don't you see!

CD 2

01.What a beautiful moment-extra shots in tour

正在读取……

这里是其它用户补充的资源(我也要补充):

暂无补充资源
正在加载,请稍等...

点击查看所有51网友评论

 

(?) [公告]留口水、评论相关规则 | [活动]每日签到 轻松领取电驴经验

    小贴士:
  1. 类似“顶”、“沙发”之类没有营养的文字,对勤劳贡献的楼主来说是令人沮丧的反馈信息。
  2. 提问之前请再仔细看一遍楼主的说明,或许是您遗漏了。
  3. 勿催片。请相信驴友们对分享是富有激情的,如果确有更新版本,您一定能搜索到。
  4. 请勿到处挖坑绊人、招贴广告。既占空间让人厌烦,又没人会搭理,于人于己都无利。
  5. 如果您发现自己的评论不见了,请参考以上4条。