v

您的位置:VeryCD动漫剧场动画

动漫资源事务区


《悬崖上的金鱼姬》(Ponyo on the Cliff by the Sea)[ACB字幕组官方发布][日/意/英][1080P][BDRip]

Sweet神父

精华资源: 3

全部资源: 3

相关: 分享到新浪微博   转播到腾讯微博   分享到开心网   分享到人人   分享到QQ空间   订阅本资源RSS更新   美味书签  subtitle
该内容尚未提供权利证明,无法提供下载。
中文名悬崖上的金鱼姬
英文名Ponyo on the Cliff by the Sea
别名悬崖上的金鱼公主,Gake no Ue no Ponyo,Ponyo Sulla Scogliera
资源格式BDRip
版本[ACB字幕组官方发布][日/意/英][1080P]
发行时间2008年
导演宫崎骏
地区日本
简介

IPB Image

【首播时间】2008年7月
【字幕制作】无字幕


【剧情介绍】


5岁的宗介从小就生长在海边小城上,他的家就在临海的悬崖上。有一天,宗介捡到了一个被海浪冲上岸的空瓶子,在里面有一条被卡住头的小金鱼。原来这只小金鱼就是人鱼女王的女儿波尼。原本是偷偷驾着水母溜出来玩的波尼,结果却被瓶子卡住了她那大大的头。于是宗介把波尼从瓶子里解救出来,并把她带回了自己家,养在塑料盆里。波尼在宗介家过得很愉快,她很喜欢宗介,宗介也喜欢她。然而,快乐的日子很快就过去了,波尼的爸爸藤本把女儿带回了海底。

波尼回家后,十分思念宗介,她做出了一个大胆的决定——她要变成人,她希望自己能变成像宗介那样的人。在妹妹们的帮助下,波尼偷出了父亲的魔法,向人类世界游去。不料,蕴含着危险魔力的生命之水失控了。于是,海水暴涨,暴风狂作,妹妹们变成了可怕的巨型鱼,海浪向宗介一家所在的悬崖扑去……


ACB字幕组资源命名格式:

片源发布:[ACB-Raws]..........

翻译发布:[ACB_Sub]..........

音乐发布:[ACB-Music]..........

新成立的字幕组还需要大家的支持

具体请关注论坛www.xg-y.com


ACB字幕组片源发布 不包含字幕



引用
General
Complete name : D:\emule\[ACB-Raws]Ponyo on the Cliff by the Sea.1080P.AVC.Japanese.DTS-ES.Italian.AC3.English.AC3.BDRip.mkv
Format : Matroska
File size : 5.47 GiB
Duration : 1h 42mn
Overall bit rate : 7 665 Kbps
Movie name : [ACB-Raws]Ponyo on the Cliff by the Sea.1080P.AVC.Japanese.DTS-ES.Italian.AC3.English.AC3.BDRip
Encoded date : UTC 2010-11-14 01:41:07
Writing application : mkvmerge v2.4.0 ('Fumbling Towards Ecstasy') built on Oct 11 2008 20:13:15
Writing library : libebml v0.7.7 + libmatroska v0.8.1
Cover : Yes / Yes / Yes / Yes / Yes / Yes
Video #1
ID : 1
Format : AVC
Format/Info : Advanced Video Codec
Format profile : High@L4.1
Format settings, CABAC : Yes
Format settings, ReFrames : 4 frames
Muxing mode : Container profile=Unknown@4.1
Codec ID : V_MPEG4/ISO/AVC
Duration : 1h 42mn
Bit rate : 5 555 Kbps
Nominal bit rate : 5 727 Kbps
Width : 1 920 pixels
Height : 1 036 pixels
Display aspect ratio : 1.853
Frame rate : 23.976 fps
Resolution : 24 bits
Colorimetry : 4:2:0
Scan type : Progressive
Bits/(Pixel*Frame) : 0.116
Stream size : 3.96 GiB (72%)
Title : Ponyo Sulla Scogliera - HDitaly
Writing library : x264 core 80 r1373 4322f63
Encoding settings : cabac=1 / ref=4 / deblock=1:1:-1 / analyse=0x3:0x133 / me=umh / subme=10 / psy=1 / psy_rd=1.0:0.0 / mixed_ref=1 / me_range=32 / chroma_me=1 / trellis=2 / 8x8dct=1 / cqm=0 / deadzone=21,11 / fast_pskip=0 / chroma_qp_offset=-2 / threads=12 / sliced_threads=0 / nr=0 / decimate=1 / mbaff=0 / constrained_intra=0 / bframes=3 / b_pyramid=0 / b_adapt=2 / b_bias=0 / direct=3 / wpredb=1 / wpredp=2 / keyint=240 / keyint_min=24 / scenecut=40 / rc_lookahead=60 / rc=2pass / mbtree=1 / bitrate=5727 / ratetol=1.0 / qcomp=0.60 / qpmin=10 / qpmax=51 / qpstep=4 / cplxblur=20.0 / qblur=0.5 / vbv_maxrate=50000 / vbv_bufsize=50000 / ip_ratio=1.40 / aq=1:1.00
Language : Italian
Audio #2
ID : 2
Format : DTS
Format/Info : Digital Theater Systems
Format profile : ES
Codec ID : A_DTS
Duration : 1h 42mn
Bit rate mode : Constant
Bit rate : 1 510 Kbps
Channel(s) : 7 channels
Channel positions : Front: L C R, Rear: L C R, LFE
Sampling rate : 48.0 KHz
Resolution : 24 bits
Stream size : 1.08 GiB (20%)
Language : Japanese
Audio #3
ID : 3
Format : AC-3
Format/Info : Audio Coding 3
Codec ID : A_AC3
Duration : 1h 42mn
Bit rate mode : Constant
Bit rate : 192 Kbps
Channel(s) : 2 channels
Channel positions : L R
Sampling rate : 48.0 KHz
Stream size : 140 MiB (3%)
Title : AC3 Italiano
Language : Italian
Audio #4
ID : 4
Format : AC-3
Format/Info : Audio Coding 3
Codec ID : A_AC3
Duration : 1h 42mn
Bit rate mode : Constant
Bit rate : 256 Kbps
Channel(s) : 2 channels
Channel positions : L R
Sampling rate : 48.0 KHz
Stream size : 187 MiB (3%)
Language : English


视频信息如上 请酌情下载

由于前一个发布账号被盗ID:l8234950

故使用新发布账号

正在读取……

这里是其它用户补充的资源(我也要补充):

暂无补充资源
正在加载,请稍等...

点击查看所有39网友评论

 

(?) [公告]留口水、评论相关规则 | [活动]每日签到 轻松领取电驴经验

    小贴士:
  1. 类似“顶”、“沙发”之类没有营养的文字,对勤劳贡献的楼主来说是令人沮丧的反馈信息。
  2. 提问之前请再仔细看一遍楼主的说明,或许是您遗漏了。
  3. 勿催片。请相信驴友们对分享是富有激情的,如果确有更新版本,您一定能搜索到。
  4. 请勿到处挖坑绊人、招贴广告。既占空间让人厌烦,又没人会搭理,于人于己都无利。
  5. 如果您发现自己的评论不见了,请参考以上4条。