v

您的位置:VeryCD综艺纪录片

综艺资源事务区


《国家地理:图坦卡蒙和失落的王朝》(National Geographic: King Tut and the Lost Dynasty )[HDTV]

  • 状态: 精华资源
  • 摘要:
    发行时间2010年
    地区美国
    语言英语
  • 时间: 2010/11/13 22:26:24 发布 | 2010/11/14 06:30:13 更新
  • 分类: 综艺  纪录片 

life_is_good

精华资源: 6571

全部资源: 7301

相关: 分享到新浪微博   转播到腾讯微博   分享到开心网   分享到人人   分享到QQ空间   订阅本资源RSS更新   美味书签  subtitle
该内容尚未提供权利证明,无法提供下载。
中文名国家地理:图坦卡蒙和失落的王朝
英文名National Geographic: King Tut and the Lost Dynasty
资源格式HDTV
发行时间2010年
制作发行National Geographic
地区美国
语言英语
简介

IPB Image

【类型】: 纪录
【影片长度】: 平均40分钟
【集数】:全1集
【字幕】: 暂无
【服务器】: 随机
【分享时间】:全天

【内容介绍】:

图坦卡蒙是古埃及新王国时期第十八王朝的一位法老(在位时期大约是公元前1334年—前1325年或前1323年)。他原来的名字叫“图坦卡顿”,意思是“阿顿”的形象,后改为图坦卡蒙,意思是“阿蒙”的形象,说明他的信仰从崇拜阿顿神向崇拜阿蒙神转变。

图坦卡蒙为现代人广为熟知是因为他的坟墓在三千年的时间内从未被盗,直到1922年才被英国人哈瓦德·卡特发现,挖掘出大量珍宝,震惊了西方世界。由于有几个最早进入坟墓的人早死,被媒体大肆渲染成“法老的诅咒”,图坦卡蒙的名字在西方更为家喻户晓。

Narrated by Emmy award-winning Alfre Woodard, Nefertiti and the Lost Dynasty documents a high-tech forensic investigation by international experts lead by Dr. Zahi Hawass, Secretary General of Egypt's Supreme Council of Antiquities and National Geographic Explorer-in-Residence, dedicated to resolving the fate of the famed queen.

代码
General
Complete name : National.Geographic.King.Tut.and.the.Lost.Dynasty.HDTV.XviD-FQM.avi
Format : AVI
Format/Info : Audio Video Interleave
File size : 350 MiB
Duration : 45mn 43s
Overall bit rate : 1 070 Kbps
Writing application : transcode-1.0.4

Video
ID : 0
Format : MPEG-4 Visual
Format profile : Advanced Simple@L5
Format settings, BVOP : Yes
Format settings, QPel : No
Format settings, GMC : No warppoints
Format settings, Matrix : Default (H.263)
Codec ID : XVID
Codec ID/Hint : XviD
Duration : 45mn 43s
Bit rate : 933 Kbps
Width : 624 pixels
Height : 352 pixels
Display aspect ratio : 16:9
Frame rate : 29.970 fps
Resolution : 8 bits
Colorimetry : 4:2:0
Scan type : Progressive
Bits/(Pixel*Frame) : 0.142
Stream size : 305 MiB (87%)
Writing library : XviD 1.2.1 (UTC 2008-12-04)

Audio
ID : 1
Format : MPEG Audio
Format version : Version 1
Format profile : Layer 3
Codec ID : 55
Codec ID/Hint : MP3
Duration : 45mn 43s
Bit rate mode : Variable
Bit rate : 128 Kbps
Channel(s) : 2 channels
Sampling rate : 48.0 KHz
Stream size : 40.1 MiB (11%)
Alignment : Aligned on interleaves
Interleave, duration : 24 ms (0.72 video frame)

正在读取……

这里是其它用户补充的资源(我也要补充):

暂无补充资源
正在加载,请稍等...

点击查看所有18网友评论

 

(?) [公告]留口水、评论相关规则 | [活动]每日签到 轻松领取电驴经验

    小贴士:
  1. 类似“顶”、“沙发”之类没有营养的文字,对勤劳贡献的楼主来说是令人沮丧的反馈信息。
  2. 提问之前请再仔细看一遍楼主的说明,或许是您遗漏了。
  3. 勿催片。请相信驴友们对分享是富有激情的,如果确有更新版本,您一定能搜索到。
  4. 请勿到处挖坑绊人、招贴广告。既占空间让人厌烦,又没人会搭理,于人于己都无利。
  5. 如果您发现自己的评论不见了,请参考以上4条。