v

您的位置:VeryCD动漫OVA

动漫资源事务区


《文学少女OVA2_“天空起舞之天使的镇魂曲”》(Bungaku Shoujo MemoirⅡ_Requiem)[bwfjc][RMVB、MP4-480P][更新特典SP等][DVDRip]

  • 状态: 精华资源
  • 摘要:
    发行时间2010年10月29日
    语言日语
  • 时间: 2010/11/07 17:31:44 发布 | 2010/11/10 12:28:40 更新
  • 分类: 动漫  OVA 

神奎托斯

精华资源: 40

全部资源: 46

相关: 分享到新浪微博   转播到腾讯微博   分享到开心网   分享到人人   分享到QQ空间   订阅本资源RSS更新   美味书签  subtitle
该内容尚未提供权利证明,无法提供下载。
中文名文学少女OVA2_“天空起舞之天使的镇魂曲”
英文名Bungaku Shoujo MemoirⅡ_Requiem
资源格式DVDRip
版本[bwfjc][RMVB、MP4-480P][更新特典SP等]
发行时间2010年10月29日
地区日本
语言日语
简介

IPB Image
【发行时间】2010-10-29
【字幕制作】bwfjc繁体内嵌

引用
神奎托斯编辑上传,其他资源请点击我: http://home.VeryCD.com/?6298050

又是bwfjc同学给我们带来的礼物,奉献光荣,大家感谢之!
MP4也来了 大家自行选择吧...囧

话说fjc你为什么不成立个字幕组?


【作品简介】

文学少女系列(”文学少女”シリーズ)是小说家野村美月与插画家竹冈美穗所推出的轻小说。获得第一届Light Novel Award的Mystery部门大奖。台湾中文版由尖端出版社发行。文学少女轻小说主系列已完结。2008年开始,文学少女在Gangan Power八月号开始连载改编漫画,由高坂りと负责作画。此外,预定在2010年春天将开播由Production I.G所制作的文学少女剧场版。


以下是fjc同学的原话:
昨天怨念没肉 结果小日本凌晨出肉了
哇哈哈 出了那就顺便战了 嗯
另外说下 10:49你们的生活过得并不充裕 这句
正确翻译是:你们的生活过得那么充裕
压制前想著改来著的 不知怎么忘记了 囧
MP4外掛时会改的 RMVB都压到60%了我也懒得再压
------------------------------------
那么 祝大家週末愉快 看片愉快



【媒体信息】
代码
      Format : RealMedia
      File size : 106 MiB
      Duration : 24mn 17s
      Overall bit rate : 602 Kbps
   Video #1
      ID : 1
      Format : RealVideo 4
      Codec ID : RV40
      Codec ID/Info : Based on AVC (H.264), Real Player 9
      Duration : 24mn 17s
      Bit rate : 538 Kbps
      Width : 848 pixels
      Height : 480 pixels
      Display aspect ratio : 16:9
      Frame rate : 23.000 fps
      Resolution : 12 bits
      Bits/(Pixel*Frame) : 0.058
      Stream size : 93.6 MiB (88%)
   Audio #0
      ID : 0
      Format : AAC
      Format/Info : Advanced Audio Codec
      Codec ID : raac
      Codec ID/Info : Real Player 9
      Duration : 24mn 17s
      Bit rate : 64.0 Kbps
      Channel(s) : 2 channels
      Sampling rate : 32.0 KHz
      Resolution : 16 bits
      Stream size : 11.1 MiB (10%)

正在读取……

这里是其它用户补充的资源(我也要补充):

暂无补充资源
正在加载,请稍等...

点击查看所有36网友评论

 

(?) [公告]留口水、评论相关规则 | [活动]每日签到 轻松领取电驴经验

    小贴士:
  1. 类似“顶”、“沙发”之类没有营养的文字,对勤劳贡献的楼主来说是令人沮丧的反馈信息。
  2. 提问之前请再仔细看一遍楼主的说明,或许是您遗漏了。
  3. 勿催片。请相信驴友们对分享是富有激情的,如果确有更新版本,您一定能搜索到。
  4. 请勿到处挖坑绊人、招贴广告。既占空间让人厌烦,又没人会搭理,于人于己都无利。
  5. 如果您发现自己的评论不见了,请参考以上4条。