v

您的位置:VeryCD动漫OVA

动漫资源事务区


《古城荆棘王》(King of Thorn)[bwfjc][MP4-720P][BDRip]

  • 状态: 精华资源
  • 摘要:
    发行时间2010年10月
    语言日语
  • 时间: 2010/11/06 13:15:40 发布 | 2010/11/09 23:00:29 更新
  • 分类: 动漫  OVA 

神奎托斯

精华资源: 40

全部资源: 46

相关: 分享到新浪微博   转播到腾讯微博   分享到开心网   分享到人人   分享到QQ空间   订阅本资源RSS更新   美味书签  subtitle
该内容尚未提供权利证明,无法提供下载。
中文名古城荆棘王
英文名King of Thorn
别名いばらの王
资源格式BDRip
版本[bwfjc][MP4-720P]
发行时间2010年10月
地区日本
语言日语
简介

IPB Image
【首播时间】2010年5月1日
【字幕制作】bwfjc外挂字幕

引用
神奎托斯编辑上传,其他资源请点击我: http://home.VeryCD.com/?6298050

瞩目:bwfjc同学个人制作,转载请注明作者!感谢bwfjc同学的劳动!


【动画介绍】(蓝色的字是作者的话)
原作漫画为岩原裕二的《古城荆棘王》,故事中有种蔓延全世界的石化病,感染者会全部集中之后进行冷冻睡眠,该设施是由古城所改建。但当这些感染者再次甦醒时,古城已经成为充斥著怪兽的废墟,主角「小霞」必须同时面对怪病以及怪物的死亡威胁,为了生存而战斗。

一句话简介:姐姐为了妹子成了神,妹子为了救姐姐把神杀死了

奎爷观影小结:呼呼,不愧为中外传唱的“深度动漫”,境界就是高啊。主线是围绕着“逃生”进行的 主角是妹妹“小霞”。但实际却隐藏着另一条情感线路(我感觉这条情感线路才是本作的精髓),其实妹妹“小霞”早就已经葬身悬崖之下了...正如王子希望睡美人醒来,姐姐“小梺”强烈的思念在某神的助推下变成了现实!一切都是姐姐的幻想,姐姐幻想出“时过境迁,妹妹由于冷冻存活了下来,而姐姐自己已经逝世”成为了现实!原本已经死去但是活在姐姐梦中的妹妹最后在现实之中重生,姐姐完成了救回妹妹的愿望却牺牲了自己...

说实话看完此片我内牛满面,神志不清的我写出此影评不知大家能看懂否...

对了,那个小孩说的游戏好像是“blackmare” “黑暗梦魇” 我记得是小时候FC里面一款游戏(一个鬼屋游戏)...




【文件信息】
代码
      Format : MPEG-4
      Format profile : Base Media
      Codec ID : isom
      File size : 1.33 GiB
      Duration : 1h 49mn
      Overall bit rate : 1 746 Kbps
      Encoded date : UTC 2010-11-04 17:13:58
      Tagged date : UTC 2010-11-04 17:13:58
   Video #1
      ID : 1
      Format : AVC
      Format/Info : Advanced Video Codec
      Format profile : High@L4.1
      Format settings, CABAC : Yes
      Format settings, ReFrames : 4 frames
      Codec ID : avc1
      Codec ID/Info : Advanced Video Coding
      Duration : 1h 49mn
      Bit rate mode : Variable
      Bit rate : 1 581 Kbps
      Maximum bit rate : 23.3 Mbps
      Width : 1 280 pixels
      Height : 720 pixels
      Display aspect ratio : 16:9
      Frame rate mode : Variable
      Frame rate : 23.976 fps
      Minimum frame rate : 11.988 fps
      Maximum frame rate : 23.976 fps
      Resolution : 24 bits
      Colorimetry : 4:2:0
      Scan type : Progressive
      Bits/(Pixel*Frame) : 0.072
      Stream size : 1.21 GiB (91%)
      Title : Imported with GPAC 0.4.6-DEV (internal rev. 5)
      Writing library : x264 core 107 r1745 4785e8e
      Encoding settings : cabac=1 / ref=4 / deblock=1:0:0 / analyse=0x3:0x133 / me=umh / subme=10 / psy=1 / psy_rd=0.40:0.00 / mixed_ref=1 / me_range=24 / chroma_me=1 / trellis=2 / 8x8dct=1 / cqm=0 / deadzone=21,11 / fast_pskip=0 / chroma_qp_offset=-2 / threads=6 / sliced_threads=0 / nr=0 / decimate=1 / interlaced=0 / constrained_intra=0 / bframes=8 / b_pyramid=2 / b_adapt=2 / b_bias=0 / direct=3 / weightb=1 / open_gop=0 / weightp=2 / keyint=240 / keyint_min=24 / scenecut=75 / intra_refresh=0 / rc=crf / mbtree=0 / crf=18.0 / qcomp=0.60 / qpmin=2 / qpmax=30 / qpstep=4 / ip_ratio=1.40 / pb_ratio=1.30 / aq=2:1.00
      Encoded date : UTC 2010-11-04 17:13:58
      Tagged date : UTC 2010-11-04 17:15:48
   Audio #2
      ID : 2
      Format : AAC
      Format/Info : Advanced Audio Codec
      Format version : Version 4
      Format profile : LC
      Format settings, SBR : No
      Codec ID : 40
      Duration : 1h 49mn
      Bit rate mode : Variable
      Bit rate : 161 Kbps
      Maximum bit rate : 201 Kbps
      Channel(s) : 2 channels
      Channel positions : L R
      Sampling rate : 48.0 KHz
      Resolution : 16 bits
      Stream size : 126 MiB (9%)
      Language : Japanese
      Encoded date : UTC 2010-11-04 17:15:38
      Tagged date : UTC 2010-11-04 17:15:48

正在读取……

这里是其它用户补充的资源(我也要补充):

暂无补充资源
正在加载,请稍等...

点击查看所有89网友评论

 

(?) [公告]留口水、评论相关规则 | [活动]每日签到 轻松领取电驴经验

    小贴士:
  1. 类似“顶”、“沙发”之类没有营养的文字,对勤劳贡献的楼主来说是令人沮丧的反馈信息。
  2. 提问之前请再仔细看一遍楼主的说明,或许是您遗漏了。
  3. 勿催片。请相信驴友们对分享是富有激情的,如果确有更新版本,您一定能搜索到。
  4. 请勿到处挖坑绊人、招贴广告。既占空间让人厌烦,又没人会搭理,于人于己都无利。
  5. 如果您发现自己的评论不见了,请参考以上4条。