v

您的位置:VeryCD综艺纪录片

综艺资源事务区


《探索频道:智利矿难启示录》(Discovery Channel: Rescued: The Chilean Mine Story)[HDTV]

  • 状态: 精华资源
  • 摘要:
    发行时间2010年
    地区美国
    语言英语
  • 时间: 2010/11/02 23:10:03 发布 | 2010/11/03 06:24:17 更新
  • 分类: 综艺  纪录片 

life_is_good

精华资源: 6571

全部资源: 7301

相关: 分享到新浪微博   转播到腾讯微博   分享到开心网   分享到人人   分享到QQ空间   订阅本资源RSS更新   美味书签  subtitle
该内容尚未提供权利证明,无法提供下载。
中文名探索频道:智利矿难启示录
英文名Discovery Channel: Rescued: The Chilean Mine Story
资源格式HDTV
发行时间2010年
制作发行Discovery Channel
地区美国
语言英语
简介

IPB Image


【类型】: 纪录
【影片长度】: 43分钟
【集数】:全1集
【字幕】: 暂无
【服务器】: 随机
【分享时间】:全天

【内容介绍】:

There’s nothing more compelling that real-life drama, which is exactly what Rescued: The Chilean Mine Story delivers. The special will delve into how the dedication of man meshed with machine to save the lives of 33 men trapped below ground for 70 days.

Rescued, also airing on Discovery en Español and on Discovery Channel across Latin America, will feature:

* interviews with the family members of miners;
* an interview with Andre Sougarett, head of the rescue operation;
* the activity of the three drilling machines that were used for the rescue operations;
* the Engineers and technicians in charge of each of the plans ( Plan A, B and C)/each drilling machine;
* the “control room” of the operation where daily meetings took; and
* interviews with Chilean President Piñera, mining minister Laurence Golborne and Dr. Michael Duncan from NASA (an advisor to the medical team in charge of the miners when they were trapped).

(以下转自腾讯网新闻频道)
(文字综合新华网/中新网/现代快报 图片综合CFP/IC/人民图片)

智利的矿难救援奇迹是面镜子

8月5日发生矿难,33名工人受困地下622米深处;10月13日工人开始升井。69天时间,受困人员全部生还。真正的人类奇迹,这次由智利创造。

自从播出了许三多,中国人都爱说“不抛弃,不放弃”。智利矿难救援,是真正的“不抛弃,不放弃”。这个救援中有太多极限数据。8月5日矿难,8月22日才寻获矿工位置,得知“我们全部33人都在避难所内,全部安好”,这中间有17天。从矿难发生到有人成功升井,相隔60多天。60多天里,井下受困人员全部状况良好。

这些最终获救的矿工将得到什么?他们的生命仍然鲜艳,他们将收获鲜花与掌声。他们还将获得政府赔偿、矿企赔偿等等,还有社会各界提供的一些资助,从免费酒水、免费旅游、免费观赛、新的工作机会等等。报道说,获救人员每人将获得大约相当于300万元人民币的补偿。这不是死亡赔偿金,而是生命得以延续条件下的损失补偿。

一个国家的社会生活,无论平常状态还是突发或紧急状态,本身就是形象宣传片,无须特别拍摄。智利是不是强国,智利的GDP有多少,智利有没有“亲切的关怀,巨大的鼓舞”,我们不知道,但这次矿难救援,对我们的生活经验来说足称震惊——原来生命可以得到如此“奢侈”的呵护。

四大因素缔造智利矿难生还奇迹

1、人性化救援:政府拒绝作秀

他们也不是对矿工进行思想政治教育,或是讲一些多难兴邦的大道理,而是用具体的心理指导建立矿工们的信心和希望。他们没有为维护所谓的救援秩序而将矿工的家属隔离开来。他们告诉矿工的是,用轻松的心理去应对灾难。

2、制度防范:井下须建紧急避难所

正是这些地下的避难所或者救援室,让被困者先升井与后升井同样有着生命的保证。所以,智利矿难中那耀眼的人性光芒,到底是人性原点的放大,还是制度保证下的升华,很值得我们思考并用来完善我们社会的人文塑构。

避难所中,室温维持在32至36摄氏度,有通风口,有生命赖以维持的饮用水。这种简朴的场所,不是第一次看到。媒体在今年4月初对美国西弗吉尼亚州一起矿难的报道中显露:该煤矿矿下设有密闭救援室,里面储有四天食物、水和氧气,以备矿难中矿工避难等待营救。

3、科学救援:靠天靠地不如靠科技

智利动用所有可能的力量和最先进救援科技,在矿井现场有数百名支援人员,从工程师、心理学家到营养师、实验室人员。

大至重型挖掘机和“胶囊”救援舱,小至安慰矿工心灵的投射机和灭菌铜纤维短袜,这些高科技产品有助援救,同时保证矿工在井下的生活质素。营救人员还设计了一条如通风管的空心圆柱“白兰鸽”,以把补给送到矿工避难处。

4、矿工互助:团结配合求井底还生

33名矿工意志顽强,团结协作。33人共分为三组,每组11人,分别负责避难所、斜坡和105米(海拔高度)处作业区三个地点的工作,实行“三班倒”制度。每个组的负责人直接向8月5日矿难发生当天的班长刘易斯·乌尔祖亚汇报。

地下69天

8月5日:智利北部圣何塞铜矿塌方,33名矿工受困地下622米处,生死未卜。

8月22日:矿工把一张纸拴在一个先前深入地下庇护所的探杆上,为地面亲人和救援者送去令他们欣喜若狂的消息:“我们33人全都好好地活着!”

8月23日:矿工们通过一条很长的细管,第一次收到了地面救援人员输送的饮用水和营养液。

8月24日:被困井下已经20天的矿工通过钻孔接通的电话线,第一次与地面救援人员通上了话。他们健康状况良好,只是部分矿工因缺乏食物出现了胃痉挛。

8月26日:矿工通过送入地底的高科技摄录机,第一次向地面展示矿井地下700米处的情况,并高唱国歌,大呼:“矿工万岁!”

9月1日:矿工们自被困井下以来,第一次吃到了救援人员通过钻孔送下来的固体热食,如牛肉、米饭等。

9月7日: 矿工们收到一个小型电视接收器,并接通地下的电视电缆,终于在井下收看到了一场足球比赛直播。

9月12日:经过不断请求,喜欢抽烟的矿工终于获得批准,第一次在井下抽到了香烟。同时,矿工们跟随电视中教练的指导开始健身训练,为获救做好准备。

9月14日:被困矿工艾瑞·泰科纳(Ariel Ticona)得知妻子伊丽莎白·塞戈维亚顺利产下一名4公斤重的女婴,从地下传给妻子一张纸条,希望给孩子起名“埃斯佩朗莎·伊丽莎白 (Esperanza Elizabeth)”。在西班牙语中,埃斯佩朗莎的意思是“希望”。

9月17日:矿工们听到一条救援通道已经打通的消息后,欣喜若狂。

9月18日:矿工们跳起民族舞蹈,高唱国歌,庆祝智利独立200周年。他们还通过电视转播观看了独立日的庆典活动,并听到了总统对他们的赞扬。

9月19日:矿工们与总统进行了视频通话,深受鼓舞。

10月8日,救援通道打通。

10月11日,智利矿难救援首批4名升井矿工人选确定。

10月13日,工人开始升井。

延伸阅读——智利:人民富足 政府廉洁

多年来,智利一直被视为拉美国家中社会稳定有序、经济繁荣健康的榜样。智利人均收入1000美元/月,按人均收入计算,是拉美地区最富有的国家之一。

根据国际透明度组织发布的“2009全球腐败报告”,在“年度清廉国家排行榜”上智利列第23位,与法国和乌拉圭并列,在拉美地区腐败程度最低。

代码
Complete name : Discovery.Channel.Rescued.The.Chilean.Mine.Story.HDTV.XviD-MOMENTUM.avi
Format : AVI
Format/Info : Audio Video Interleave
Format profile : OpenDML
File size : 349 MiB
Duration : 43mn 32s
Overall bit rate : 1 121 Kbps
Writing application : AVI-Mux GUI 1.17.8.3, Feb 16 201019:42:50

Video
ID : 0
Format : MPEG-4 Visual
Format profile : Advanced Simple@L5
Format settings, BVOP : Yes
Format settings, QPel : No
Format settings, GMC : No warppoints
Format settings, Matrix : Default (MPEG)
Codec ID : XVID
Codec ID/Hint : XviD
Duration : 43mn 32s
Bit rate : 990 Kbps
Width : 624 pixels
Height : 352 pixels
Display aspect ratio : 16:9
Frame rate : 29.970 fps
Resolution : 8 bits
Colorimetry : 4:2:0
Scan type : Progressive
Bits/(Pixel*Frame) : 0.150
Stream size : 308 MiB (88%)
Writing library : XviD 1.2.1 (UTC 2008-12-04)

Audio
ID : 1
Format : MPEG Audio
Format version : Version 1
Format profile : Layer 3
Mode : Joint stereo
Codec ID : 55
Codec ID/Hint : MP3
Duration : 43mn 32s
Bit rate mode : Variable
Bit rate : 122 Kbps
Nominal bit rate : 128 Kbps
Channel(s) : 2 channels
Sampling rate : 48.0 KHz
Stream size : 38.1 MiB (11%)
Alignment : Aligned on interleaves
Interleave, duration : 24 ms (0.72 video frame)
Interleave, preload duration : 207 ms
Title : mine_Output
Writing library : LAME3.98r
Encoding settings : -m j -V 4 -q 2 -lowpass 17 --abr 128

正在读取……

这里是其它用户补充的资源(我也要补充):

暂无补充资源
正在加载,请稍等...

点击查看所有9网友评论

该资源评论已被关闭