v

您的位置:VeryCD动漫OVA

动漫资源事务区


《古城荆棘王》(King of Thorn)[bwfjc][RMVB-480P]附全特典SP[DVDRip]

  • 状态: 精华资源
  • 摘要:
    发行时间2010年10月30日
    语言日语
  • 时间: 2010/10/31 00:40:44 发布 | 2010/10/31 18:58:28 更新
  • 分类: 动漫  OVA 

神奎托斯

精华资源: 40

全部资源: 46

相关: 分享到新浪微博   转播到腾讯微博   分享到开心网   分享到人人   分享到QQ空间   订阅本资源RSS更新   美味书签  subtitle
该内容尚未提供权利证明,无法提供下载。
中文名古城荆棘王
英文名King of Thorn
别名いばらの王
资源格式DVDRip
版本[bwfjc][RMVB-480P]附全特典SP
发行时间2010年10月30日
地区日本
语言日语
简介

IPB Image
【首播时间】2010年5月1日
【字幕制作】bwfjc内嵌字幕

引用
神奎托斯编辑上传,其他资源请点击我: http://home.VeryCD.com/?6298050

瞩目:bwfjc同学个人制作,转载请注明作者!感谢bwfjc同学的劳动!


【动画介绍】(蓝色的字是作者的话)
原作漫画为岩原裕二的《古城荆棘王》,故事中有种蔓延全世界的石化病,感染者会全部集中之后进行冷冻睡眠,该设施是由古城所改建。但当这些感染者再次甦醒时,古城已经成为充斥著怪兽的废墟,主角「小霞」必须同时面对怪病以及怪物的死亡威胁,为了生存而战斗。

一句话简介:姐姐为了妹子成了神,妹子为了救姐姐把神杀死了

奎爷观影小结:呼呼,不愧为中外传唱的“深度动漫”,境界就是高啊。主线是围绕着“逃生”进行的 主角是妹妹“小霞”。但实际却隐藏着另一条情感线路(我感觉这条情感线路才是本作的精髓),其实妹妹“小霞”早就已经葬身悬崖之下了...正如王子希望睡美人醒来,姐姐“小梺”强烈的思念在某神的助推下变成了现实!一切都是姐姐的幻想,姐姐幻想出“时过境迁,妹妹由于冷冻存活了下来,而姐姐自己已经逝世”成为了现实!原本已经死去但是活在姐姐梦中的妹妹最后在现实之中重生,姐姐完成了救回妹妹的愿望却牺牲了自己...

说实话看完此片我内牛满面,神志不清的我写出此影评不知大家能看懂否...



【文件信息】
代码
      Format : RealMedia
      File size : 473 MiB
      Duration : 1h 49mn
      Overall bit rate : 596 Kbps
   Video #1
      ID : 1
      Format : RealVideo 4
      Codec ID : RV40
      Codec ID/Info : Based on AVC (H.264), Real Player 9
      Duration : 1h 49mn
      Bit rate : 532 Kbps
      Width : 848 pixels
      Height : 480 pixels
      Display aspect ratio : 16:9
      Frame rate : 23.000 fps
      Resolution : 12 bits
      Bits/(Pixel*Frame) : 0.057
      Stream size : 416 MiB (88%)
   Audio #0
      ID : 0
      Format : AAC
      Format/Info : Advanced Audio Codec
      Codec ID : raac
      Codec ID/Info : Real Player 9
      Duration : 1h 49mn
      Bit rate : 64.0 Kbps
      Channel(s) : 2 channels
      Sampling rate : 32.0 KHz
      Resolution : 16 bits
      Stream size : 50.1 MiB (11%)

正在读取……

这里是其它用户补充的资源(我也要补充):

暂无补充资源
正在加载,请稍等...

点击查看所有95网友评论

 

(?) [公告]留口水、评论相关规则 | [活动]每日签到 轻松领取电驴经验

    小贴士:
  1. 类似“顶”、“沙发”之类没有营养的文字,对勤劳贡献的楼主来说是令人沮丧的反馈信息。
  2. 提问之前请再仔细看一遍楼主的说明,或许是您遗漏了。
  3. 勿催片。请相信驴友们对分享是富有激情的,如果确有更新版本,您一定能搜索到。
  4. 请勿到处挖坑绊人、招贴广告。既占空间让人厌烦,又没人会搭理,于人于己都无利。
  5. 如果您发现自己的评论不见了,请参考以上4条。