v

您的位置:VeryCD动漫动漫周边

动漫资源事务区


《海贼王主题曲》(ONE PIECE)[OP13 Single - one day][THE ROOTLESS][附BK][(APE+MP3)320Kbps]

  • 状态: 精华资源
  • 摘要:
    发行时间2010年10月20日
    对白语言日语
  • 时间: 2010/10/30 15:12:50 发布 | 2010/11/21 00:33:52 更新
  • 分类: 动漫  动漫周边 

csbeyond

精华资源: 179

全部资源: 180

相关: 分享到新浪微博   转播到腾讯微博   分享到开心网   分享到人人   分享到QQ空间   订阅本资源RSS更新   美味书签  subtitle
该内容尚未提供权利证明,无法提供下载。
中文名海贼王主题曲
英文名ONE PIECE
版本[OP13 Single - one day][THE ROOTLESS][附BK][(APE+MP3)320Kbps]
发行时间2010年10月20日
地区日本
对白语言日语
简介

IPB Image

更新无损了 哈哈 附BK


【内容介绍】

财富,权力,曾经拥有一切的海贼王戈尔多·罗杰,在临死前畱下暸一句话:“想要我的财富吗?那就去找吧,我的一切都在那裏,在那伟大的航道!”于是越来越多的人奔嚮大海,驶入伟大的航道,世界迎来暸大海贼时代!
很多年后,一个小孩对这一个断暸手臂的海贼髮誓:“我一定要成为海贼王!”于是10年后,一个伟大的传说开始暸。
这是个关于一群爱做梦孩子的故事,他们拥有热情,他们拥有毅力,他们拥有伙伴......

【单曲介绍】
IPB Image

(「ONE PIECE」エース&ルフィ ver.)

発売日 2010/10/20
仕様
商品番号 RZCD-46705
JAN 4988064467051
メディア アルバム CD
组枚数 1

【ARTIST/CAST】

アーティスト/ キャスト
THE ROOTLESS (アーティスト)

内容
フジテレビ系アニメ『ONE PIECE』主题歌!! 「One day」他、全3曲5ヴァージョン収録予定。




初回生产限定
ジャケットA(「ONE PIECE」エースルフィ ver.)
封入特典:
■「ONE PIECE」エースルフィ オリジナル3Dジャケットカード(名称仮)

フジテレビ系アニメ「ONE PIECE」主题歌で着うた®は早くも大ヒット中のThe ROOTLESS、いよいよCDテ゛ヒ゛ュー!
初回生产限定盘は冲撃の「ONE PIECE」エースルフィ オリジナル3Dジャケットカードを封入!
コミック最新巻310万部、通巻1亿8560万部(日本记录)、TVアニメ视聴率2位と大ブレイク中のアニメ「ONE PIECE」主题歌!!
「ONE PIECE」フリークのTHE ROOTLESSがメンバー全员で20回以上も作り直して完成したロック・バラード「One day」

■「One day」:フジテレビ系アニメ「ONE PIECE」主题歌



【收录曲目】
1. One day ※フジテレビ系アニメ「ONE PIECE」主题歌
2. リアル
3. さよならの前に
4. One day (Instrumental)
5. One day -TV Version-

代码:

代码
Exact Audio Copy V0.99 prebeta 5 from 4. May 2009

EAC 抓取日志文件从20. 十一月 2010, 18:35

未知艺术家 / 未知标题

使用驱动器  :RUPKHC  JCXYR4LA7G   Adapter: 3  ID: 0

读取模式 : 暴发

读取偏移校正                   : 0
读取 Lead-In 和 Lead-Out       : 否
用静音填充抓取中丢失偏移的采样 : 是
去除首尾静音块                 : 否
在 CRC 计算中使用了空样本      : 是
已用接口                       : Win NT 及 2000 本地 Win32 接口

所用输出格式 : 内部 WAV 函数
样本格式     : 44.100 Hz;16 Bit;立体声


被抓轨 CD 的 TOC

     音轨 |   开始   |   长度   | 起始扇区 | 结尾扇区
    --------------------------------------------------
       1  |  0:00.00 |  4:19.21 |       0  |   19445  
       2  |  4:19.21 |  4:06.28 |   19446  |   37923  
       3  |  8:25.49 |  5:12.45 |   37924  |   61368  
       4  | 13:38.19 |  4:22.22 |   61369  |   81040  
       5  | 18:00.41 |  2:30.53 |   81041  |   92343  


范围状态及错误

已选择范围

     文件名 F:\One day\The Rootless- One day.wav

     计时问题 0:06:56

     峰值电平 96.6 %
     复制 CRC CA3D5065
     复制结束

没有错误发生

状态报告结尾

正在读取……

这里是其它用户补充的资源(我也要补充):

暂无补充资源
正在加载,请稍等...

点击查看所有63网友评论

 

(?) [公告]留口水、评论相关规则 | [活动]每日签到 轻松领取电驴经验

    小贴士:
  1. 类似“顶”、“沙发”之类没有营养的文字,对勤劳贡献的楼主来说是令人沮丧的反馈信息。
  2. 提问之前请再仔细看一遍楼主的说明,或许是您遗漏了。
  3. 勿催片。请相信驴友们对分享是富有激情的,如果确有更新版本,您一定能搜索到。
  4. 请勿到处挖坑绊人、招贴广告。既占空间让人厌烦,又没人会搭理,于人于己都无利。
  5. 如果您发现自己的评论不见了,请参考以上4条。