v

您的位置:VeryCD综艺纪录片

综艺资源事务区


《国家地理频道:纳粹超级战舰》(National Geographic: Nazi Supership)[HDTV]

  • 状态: 精华资源
  • 摘要:
    发行时间2010年
    地区美国
    语言英语
  • 时间: 2010/10/29 02:07:48 发布 | 2010/10/29 11:11:28 更新
  • 分类: 综艺  纪录片 

life_is_good

精华资源: 6571

全部资源: 7301

相关: 分享到新浪微博   转播到腾讯微博   分享到开心网   分享到人人   分享到QQ空间   订阅本资源RSS更新   美味书签  subtitle
该内容尚未提供权利证明,无法提供下载。
中文名国家地理频道:纳粹超级战舰
英文名National Geographic: Nazi Supership
资源格式HDTV
发行时间2010年
制作发行National Geographic
地区美国
语言英语
简介

IPB Image

【类型】: 纪录
【影片长度】: 40分钟
【集数】:全1集
【字幕】: 暂无
【服务器】: 随机
【分享时间】:全天

【内容介绍】:

俾斯麦号是一艘充满传奇色彩的战列舰,他和“泰坦尼克号”一样,在处女航中就沉入了大海,但在其短暂的一生中,却历经数次海战,是二次大战中最著名的一艘战列舰。
这艘以德国前首相俾斯麦名字命名的战列舰,始建于1931年7月1日,1940年8月24日服役(俾斯麦号下水)。该舰舰长241.55米,宽36米,吃水10米;标准排水量41637吨,满载排水量50900吨;动力装置由3台“柯蒂斯”轻型涡轮机和12台锅炉组成;最大航速 30.1节,续航力为1.5万海里。全舰火力较强,装有4座双联装381毫米主炮(备弹840发)、6座双联装 150毫米炮、8座双联装105毫米重型高炮、8座双联装 37毫米中型高炮、40门机关炮,以及 6具 533毫米鱼雷发射管。此外,舰上还搭载有 4架“阿拉多—196”式水上飞机(用以侦察、校射和联络),以及 18艘小艇。“俾斯麦”号战列舰的装甲厚实坚固。其上甲板全部用50毫米厚的装甲加强,可防御弹片并阻止炮弹下穿;两舷装甲厚达 320毫米,着重保护机舱、锅炉和弹药舱等要害部位;主炮炮塔的装甲厚度为150毫米至360毫米;副炮炮塔装甲厚80毫米;舷侧有鱼雷防护系统。


1941年5月18日,刚服役不久的纳粹海军超级战列舰"卑斯麦"号与重巡洋舰"欧根亲王"号驶离波罗的海准备闯入大西洋.对于吃足U艇苦头的英国海上补给线来说,这艘满载排水量达5.3万吨的巨舰无疑又是一个致命的威胁.由此早已得到情报的英国海军部立即调动一切可以调动的海军力量来围追堵截"卑斯麦"号,然而英军首战不利,先与"卑斯麦"号相遇的"胡德"号战列巡洋舰和"威尔士亲王"号战列舰不堪一击,一沉一伤.其中4.2万吨的"胡德"号是当时英国皇家海军最大的战舰,她的沉没给英海军部带来巨大的恐慌.由于"卑斯麦"号在战斗中也受了轻伤,燃油流失不少,续航力受损,遂改航法国布勒斯特港,而"欧根亲王"号责继续驶往亚速尔群岛.与此同时,英大西洋主力舰队正在逼近,25日午夜,英"胜利"号航母上的19架鱼雷机冒着黑夜和恶劣的天气对"卑斯麦"号进行了轮番攻击,结果只有一枚鱼雷命中,而凭借超厚的装甲"卑斯麦"号损伤甚微,并开足马力逃脱了英军雷达的跟踪.26日上午,英军巡逻机再次发现"卑斯麦"号踪迹,这立即招来了以"皇家方舟"号航母为首的H舰队.天黑时分,英鱼雷机再次发动攻击,"卑斯麦"号被命中两枚鱼雷,动力受损,其他英军舰只紧紧咬住尾随其后.27日上午,英军本土舰队赶到,数十艘巡洋舰开始围歼行动,"卑斯麦"号困兽犹斗,终因寡不敌众于10时36分在于布勒斯特450海里处沉入大西洋底,吕特宴斯海军上将和1600名官兵葬身海底.至此,德国海军大型水面作战舰艇再不敢贸然闯入大西洋.

参考资料: 百度知道

For the first time since 1941, historians lay eyes on the deep-sea wreck of the Nazi Battleship Bismarck.

代码
General
Complete name                    : National.Geographic.Nazi.Supership.HDTV.XviD-MOMENTUM.avi
Format                           : AVI
Format/Info                      : Audio Video Interleave
Format profile                   : OpenDML
File size                        : 349 MiB
Duration                         : 45mn 49s
Overall bit rate                 : 1 066 Kbps
Writing application              : AVI-Mux GUI 1.17.8.3, Feb 16 201019:42:50

Video
ID                               : 0
Format                           : MPEG-4 Visual
Format profile                   : Advanced Simple@L5
Format settings, BVOP            : Yes
Format settings, QPel            : No
Format settings, GMC             : No warppoints
Format settings, Matrix          : Default (MPEG)
Codec ID                         : XVID
Codec ID/Hint                    : XviD
Duration                         : 45mn 49s
Bit rate                         : 933 Kbps
Width                            : 624 pixels
Height                           : 352 pixels
Display aspect ratio             : 16:9
Frame rate                       : 29.970 fps
Resolution                       : 8 bits
Colorimetry                      : 4:2:0
Scan type                        : Progressive
Bits/(Pixel*Frame)               : 0.142
Stream size                      : 306 MiB (87%)
Writing library                  : XviD 1.2.1 (UTC 2008-12-04)

Audio
ID                               : 1
Format                           : MPEG Audio
Format version                   : Version 1
Format profile                   : Layer 3
Mode                             : Joint stereo
Format_Settings_ModeExtension    : MS Stereo
Codec ID                         : 55
Codec ID/Hint                    : MP3
Duration                         : 45mn 49s
Bit rate mode                    : Variable
Bit rate                         : 124 Kbps
Nominal bit rate                 : 128 Kbps
Channel(s)                       : 2 channels
Sampling rate                    : 48.0 KHz
Stream size                      : 40.5 MiB (12%)
Alignment                        : Aligned on interleaves
Interleave, duration             : 24 ms (0.72 video frame)
Interleave, preload duration     : 214 ms
Title                            : ship_Output
Writing library                  : LAME3.98r
Encoding settings                : -m j -V 4 -q 2 -lowpass 17 --abr 128

正在读取……

这里是其它用户补充的资源(我也要补充):

暂无补充资源
正在加载,请稍等...

点击查看所有89网友评论

 

(?) [公告]留口水、评论相关规则 | [活动]每日签到 轻松领取电驴经验

    小贴士:
  1. 类似“顶”、“沙发”之类没有营养的文字,对勤劳贡献的楼主来说是令人沮丧的反馈信息。
  2. 提问之前请再仔细看一遍楼主的说明,或许是您遗漏了。
  3. 勿催片。请相信驴友们对分享是富有激情的,如果确有更新版本,您一定能搜索到。
  4. 请勿到处挖坑绊人、招贴广告。既占空间让人厌烦,又没人会搭理,于人于己都无利。
  5. 如果您发现自己的评论不见了,请参考以上4条。