v

您的位置:VeryCD综艺纪录片

综艺资源事务区


《探索频道:谁出卖了安妮弗兰克?》(Discovery Channel: Who Betrayed Anne Frank?)[TVRip]

  • 状态: 精华资源
  • 摘要:
    发行时间2003年
    地区美国
    语言英语
  • 时间: 2010/10/29 01:45:17 发布 | 2010/10/29 11:10:14 更新
  • 分类: 综艺  纪录片 

life_is_good

精华资源: 6571

全部资源: 7301

相关: 分享到新浪微博   转播到腾讯微博   分享到开心网   分享到人人   分享到QQ空间   订阅本资源RSS更新   美味书签  subtitle
该内容尚未提供权利证明,无法提供下载。
中文名探索频道:谁出卖了安妮弗兰克?
英文名Discovery Channel: Who Betrayed Anne Frank?
资源格式TVRip
发行时间2003年
制作发行Discovery Channel
地区美国
语言英语
简介

IPB Image

【类型】: 纪录
【影片长度】: 40分钟
【集数】:全1集
【字幕】: 暂无
【服务器】: 随机
【分享时间】:全天

【内容介绍】:

Anne Frank, diarist and heroine to millions, died in a Nazi concentration camp in the final weeks of World War II. But to this day, the details are murky on exactly who turned in the family (who hid during much of the war in a secret annex to the Franks' factory) to German authorities, resulting in their deportation. Lifelong Anne Frank researcher Carol Ann Lee guides you through a list of likely suspects in this engrossing documentary

一个十六岁的少女,最大的愿望是做一名记者和作家,却因为希特勒发动的一场邪恶的战争,于花季之龄死于纳粹集中营。这本日记是安妮遇难前两年藏身密室时的生活和情感的记载。作为一名成长中的少女,她在日记中吐露了与母亲不断发生冲突的困惑以及对性的好奇。

“二战后我想出版一本书,叫做《密室》……”

一九四二年七月,十三岁的安妮和家人为逃离纳粹恐怖统治,躲藏在荷兰阿姆斯特丹一间仓库里,从此展开两年多的密室生活。“我经常心情沮丧,可是从来不绝望。我将我们躲藏在这里的生活看成一场有趣的探险,充满危险与浪漫情事,并且将每个艰辛匱乏当成使我日记更丰富的材料。”一九四四年四月五日安妮在日记里写道:“我希望我死后,仍能继续活着。”

安妮的日记从一九四二年六月十二日写到一九四四年八月一日。起初,她这日记是纯为自己而写。后来,荷兰流亡政府的成员杰瑞特·波克斯坦从伦敦广播电台宣布说,他希望在战争结束之后,能蒐集有关荷兰人民在德军佔领之下苦难生活的目击报导,公诸大众。他特别以信件与日记做为例子。安妮收听到这段话,为之动心,于是决定在战争结束之后,要依据她的日记出版一本书。她开始将她的日记加以改写、编辑、润饰,删去她认为不够有趣的部分,并且靠回忆增加一些内容。同时,安妮也保留了原始的日记。

学术界编纂的《安妮日记:评注本》将安妮第一次写成、未经整编的日记称为A版,以别于第二次所写、经过整理的版本,是第二种版本,一般称为B版……奥图·法兰克斟酌许久,决定完成女儿的宿愿,将日记出版问世。他从A与B版中选材,编成篇幅较短的一种版本,后来称为C版,全世界读者历来读到的《安妮日记》就是这个版本。

奥图·法兰克的遗产由坐落在瑞士巴塞尔的安妮·弗兰克基金会继承,该会拥有安妮日记的版权。后来,基金会决定为日记推出一种增订的新版本,从安妮的A与B两个版本取材,对奥图·法兰克的内容加以补充,内容大约增加了百分之三十,希望让读者更了解安妮的内心世界。

自从安妮死后,她的日记已经被翻译成五十五种文字,销售二千四百万册,安妮的确以另一种方式完成她的梦想。这个最新披露的绝对版本对于已经认识安妮的人来说,提供一个重新发现安妮的机会;对于未识安妮的人而言,更是一个值得珍藏的版本。

代码
Complete name : Who.Betrayed.Anne.Frank.FS.TVRip.XviD.avi
Format : AVI
Format/Info : Audio Video Interleave
File size : 336 MiB
Duration : 46mn 41s
Overall bit rate : 1 007 Kbps
Writing application : VirtualDubMod 1.5.10.2 (build 2540/release)
Writing library : VirtualDubMod build 2540/release

Video
ID : 0
Format : MPEG-4 Visual
Format profile : Advanced Simple@L5
Format settings, BVOP : Yes
Format settings, QPel : No
Format settings, GMC : No warppoints
Format settings, Matrix : Default (H.263)
Muxing mode : Packed bitstream
Codec ID : XVID
Codec ID/Hint : XviD
Duration : 46mn 41s
Bit rate : 870 Kbps
Width : 640 pixels
Height : 464 pixels
Display aspect ratio : 1.379
Frame rate : 25.000 fps
Resolution : 8 bits
Colorimetry : 4:2:0
Scan type : Progressive
Bits/(Pixel*Frame) : 0.117
Stream size : 290 MiB (86%)
Writing library : XviD 1.2.1 (UTC 2008-12-04)

Audio
ID : 1
Format : MPEG Audio
Format version : Version 1
Format profile : Layer 3
Codec ID : 55
Codec ID/Hint : MP3
Duration : 46mn 41s
Bit rate mode : Constant
Bit rate : 128 Kbps
Channel(s) : 2 channels
Sampling rate : 44.1 KHz
Stream size : 42.7 MiB (13%)
Alignment : Split accross interleaves
Interleave, duration : 40 ms (1.00 video frame)
Interleave, preload duration : 500 ms

正在读取……

这里是其它用户补充的资源(我也要补充):

暂无补充资源
正在加载,请稍等...

点击查看所有26网友评论

 

(?) [公告]留口水、评论相关规则 | [活动]每日签到 轻松领取电驴经验

    小贴士:
  1. 类似“顶”、“沙发”之类没有营养的文字,对勤劳贡献的楼主来说是令人沮丧的反馈信息。
  2. 提问之前请再仔细看一遍楼主的说明,或许是您遗漏了。
  3. 勿催片。请相信驴友们对分享是富有激情的,如果确有更新版本,您一定能搜索到。
  4. 请勿到处挖坑绊人、招贴广告。既占空间让人厌烦,又没人会搭理,于人于己都无利。
  5. 如果您发现自己的评论不见了,请参考以上4条。