v

您的位置:VeryCD综艺纪录片

综艺资源事务区


《国家地理频道:风暴世界》(National Geographic: Storm Worlds)全3集[HDTV]

  • 状态: 精华资源
  • 摘要:
    发行时间2010年
    地区美国
    语言英语
  • 时间: 2010/10/29 01:26:47 发布 | 2010/10/29 11:10:37 更新
  • 分类: 综艺  纪录片 

life_is_good

精华资源: 6571

全部资源: 7301

相关: 分享到新浪微博   转播到腾讯微博   分享到开心网   分享到人人   分享到QQ空间   订阅本资源RSS更新   美味书签  subtitle
该内容尚未提供权利证明,无法提供下载。
中文名国家地理频道:风暴世界
英文名National Geographic: Storm Worlds
资源格式HDTV
版本全3集
发行时间2010年
制作发行National Geographic
地区美国
语言英语
简介

IPB Image

【类型】: 纪录
【影片长度】: 40分钟
【集数】:全3集
【字幕】: 暂无
【服务器】: 随机
【分享时间】:全天

【内容介绍】:

关於节目
宇宙某些最猛烈的天气发生在外太空,如果它来到地球结果将会如何?本节目将想像难以想像的情境,驾驭极端的外星风暴,让它们吹袭地球。在这个刺激且创新的三部曲中,世界各地顶尖科学家将为观眾示范,地球是如何与其他星球透过天气而息息相关。

节目指南
* 风暴世界 Storm Worlds: 太空风暴
宇宙一些最猛烈的天气发生在外太空,如果它来到地球结果将会如何?本节目将难以想像的情境,驾驭极端的外星风暴,让它们吹袭地球。在这个刺激且创新的三部曲中,世界各地顶尖科学家为观眾示范,地球如何因天气而与其他星球息息相关。
* 风暴世界 Storm Worlds: 宇宙之火
地球四周常有源於太阳与其他恒星高能次原子粒子的太空天气,1859年袭击地球的太阳风暴,导致世界各地电报通讯系统中断。倘若再次发生,现代科技将受到怎样的衝击?科学家自北极冰蕊和历史纪录中取得证据,做好準备面对有史以来最强烈风暴。
* 风暴世界 Storm Worlds: 致命沙尘
无论对火星或地球而言,沙尘暴都不算罕见。从白雪山巔到深海底部都能找到沙尘的踪迹,当中还有微生物存在。科学家正进行彻底测试,确保太空人不会遭受火星沙尘暴的侵害。透过研究,我们不只防范外星风暴,也能对付地球上的沙尘暴。

代码
Complete name : National.Geographic.Storm.Worlds.Alien.Wind.HDTV.XviD-MOMENTUM.avi
Format : AVI
Format/Info : Audio Video Interleave
Format profile : OpenDML
File size : 350 MiB
Duration : 44mn 48s
Overall bit rate : 1 091 Kbps
Writing application : AVI-Mux GUI 1.17.8.3, Feb 16 201019:42:50

Video
ID : 0
Format : MPEG-4 Visual
Format profile : Advanced Simple@L5
Format settings, BVOP : Yes
Format settings, QPel : No
Format settings, GMC : No warppoints
Format settings, Matrix : Default (MPEG)
Codec ID : XVID
Codec ID/Hint : XviD
Duration : 44mn 48s
Bit rate : 959 Kbps
Width : 624 pixels
Height : 352 pixels
Display aspect ratio : 16:9
Frame rate : 23.976 fps
Resolution : 8 bits
Colorimetry : 4:2:0
Scan type : Progressive
Bits/(Pixel*Frame) : 0.182
Stream size : 307 MiB (88%)
Writing library : XviD 1.2.1 (UTC 2008-12-04)

Audio
ID : 1
Format : MPEG Audio
Format version : Version 1
Format profile : Layer 3
Mode : Joint stereo
Format_Settings_ModeExtension : MS Stereo
Codec ID : 55
Codec ID/Hint : MP3
Duration : 44mn 48s
Bit rate mode : Variable
Bit rate : 123 Kbps
Nominal bit rate : 128 Kbps
Channel(s) : 2 channels
Sampling rate : 48.0 KHz
Stream size : 39.5 MiB (11%)
Alignment : Aligned on interleaves
Interleave, duration : 24 ms (0.58 video frame)
Interleave, preload duration : 211 ms
Title : storm_wind_Output
Writing library : LAME3.98r
Encoding settings : -m j -V 4 -q 2 -lowpass 17 --abr 128

正在读取……

这里是其它用户补充的资源(我也要补充):

暂无补充资源
正在加载,请稍等...

点击查看所有17网友评论

 

(?) [公告]留口水、评论相关规则 | [活动]每日签到 轻松领取电驴经验

    小贴士:
  1. 类似“顶”、“沙发”之类没有营养的文字,对勤劳贡献的楼主来说是令人沮丧的反馈信息。
  2. 提问之前请再仔细看一遍楼主的说明,或许是您遗漏了。
  3. 勿催片。请相信驴友们对分享是富有激情的,如果确有更新版本,您一定能搜索到。
  4. 请勿到处挖坑绊人、招贴广告。既占空间让人厌烦,又没人会搭理,于人于己都无利。
  5. 如果您发现自己的评论不见了,请参考以上4条。