v

您的位置:VeryCD综艺纪录片

综艺资源事务区


《BBC:苏格兰地貌的形成》(BBC: Making Scotland's Landscape)全五集/720P更新至第1-2集[PDTV+720P]

  • 状态: 精华资源
  • 摘要:
    发行时间2010年
    地区英国
    语言英语
  • 时间: 2010/10/26 00:40:37 发布 | 2011/01/19 18:19:42 更新
  • 分类: 综艺  纪录片 

life_is_good

精华资源: 6571

全部资源: 7301

相关: 分享到新浪微博   转播到腾讯微博   分享到开心网   分享到人人   分享到QQ空间   订阅本资源RSS更新   美味书签  subtitle
该内容尚未提供权利证明,无法提供下载。
中文名BBC:苏格兰地貌的形成
英文名BBC: Making Scotland's Landscape
版本全五集/720P更新至第1-2集[PDTV+720P]
发行时间2010年
制作发行BBC
地区英国
语言英语
简介

IPB Image

【类型】: 纪录
【影片长度】: 40分钟
【集数】:共5集
【字幕】: 暂无
【服务器】: 随机
【分享时间】:全天

【内容介绍】:

苏格兰是一个以”自然“风景优美而著称的国家。然而,苏格兰的地貌并非人们想象的那样是浑然天成的,本系列节目中,Iain Stewart博士将带领观众们了解几个世纪以来,人类活动对苏格兰地貌巨大影响。(文:life_is_good@YDY)

In a country celebrated for its unique 'natural' beauty, Dr Iain Stewart reveals how every square inch of Scotland's landscape has been affected by centuries of human activity.

http://www.bbc.co.uk/scotland/tv/b00vjvyw/inc/style/programmes/img/aps_banner_150.jpg

http://wwwimg.bbc.co.uk/programmes/i/512xn/eb83e9928f3cb3ffbceefb34ce382648e273af31.jpg

http://wwwimg.bbc.co.uk/programmes/i/512xn/6093cadc1fae667c0234a020a6af789013015f33.jpg

代码
Complete name : Making.Scotland's.Landscape.Part1.Scotland's.Trees.PDTV.XviD-Hannibal.avi.avi
Format : AVI
Format/Info : Audio Video Interleave
File size : 481 MiB
Duration : 59mn 7s
Overall bit rate : 1 138 Kbps
Writing application : VirtualDubMod 1.5.10.2 (build 2540/release)
Writing library : VirtualDubMod build 2540/release

Video
ID : 0
Format : MPEG-4 Visual
Format profile : Advanced Simple@L5
Format settings, BVOP : Yes
Format settings, QPel : No
Format settings, GMC : No warppoints
Format settings, Matrix : Default (H.263)
Muxing mode : Packed bitstream
Codec ID : XVID
Codec ID/Hint : XviD
Duration : 59mn 7s
Bit rate : 1 000 Kbps
Width : 608 pixels
Height : 336 pixels
Display aspect ratio : 16:9
Frame rate : 25.000 fps
Resolution : 8 bits
Colorimetry : 4:2:0
Scan type : Progressive
Bits/(Pixel*Frame) : 0.196
Stream size : 423 MiB (88%)
Writing library : XviD 1.0.3 (UTC 2004-12-20)

Audio
ID : 1
Format : MPEG Audio
Format version : Version 1
Format profile : Layer 3
Mode : Joint stereo
Format_Settings_ModeExtension : MS Stereo
Codec ID : 55
Codec ID/Hint : MP3
Duration : 59mn 7s
Bit rate mode : Constant
Bit rate : 128 Kbps
Channel(s) : 2 channels
Sampling rate : 48.0 KHz
Stream size : 54.1 MiB (11%)
Alignment : Aligned on interleaves
Interleave, duration : 40 ms (1.00 video frame)
Interleave, preload duration : 504 ms

正在读取……

这里是其它用户补充的资源(我也要补充):

wolf_zhchk 2010/12/02 18:26:59 补充
...

该内容尚未提供权利证明,无法提供下载。
正在加载,请稍等...

点击查看所有31网友评论

 

(?) [公告]留口水、评论相关规则 | [活动]每日签到 轻松领取电驴经验

    小贴士:
  1. 类似“顶”、“沙发”之类没有营养的文字,对勤劳贡献的楼主来说是令人沮丧的反馈信息。
  2. 提问之前请再仔细看一遍楼主的说明,或许是您遗漏了。
  3. 勿催片。请相信驴友们对分享是富有激情的,如果确有更新版本,您一定能搜索到。
  4. 请勿到处挖坑绊人、招贴广告。既占空间让人厌烦,又没人会搭理,于人于己都无利。
  5. 如果您发现自己的评论不见了,请参考以上4条。