v

您的位置:VeryCD综艺纪录片

综艺资源事务区


《国家地理频道:走进银河》(National Geographic: Inside the Milky Way)[HDTV]

  • 状态: 精华资源
  • 摘要:
    发行时间2010年
    地区美国
    语言英语
  • 时间: 2010/10/26 00:34:24 发布 | 2010/10/26 15:16:36 更新
  • 分类: 综艺  纪录片 

life_is_good

精华资源: 6571

全部资源: 7301

相关: 分享到新浪微博   转播到腾讯微博   分享到开心网   分享到人人   分享到QQ空间   订阅本资源RSS更新   美味书签  subtitle
该内容尚未提供权利证明,无法提供下载。
中文名国家地理频道:走进银河
英文名National Geographic: Inside the Milky Way
资源格式HDTV
发行时间2010年
制作发行National Geographic
地区美国
语言英语
简介

IPB Image

【类型】: 纪录
【影片长度】: 40分钟
【集数】:全1集
【字幕】: 暂无
【服务器】: 随机
【分享时间】:全天

【内容介绍】:

Inside the Milky Way带领观众们展开一场穿越十万光年的旅行,见证银河发展史上的关键时刻。观众们将有机会走进银河中心的超大质量黑洞,了解恒星的出生和死亡,探索银河的结构,以及寻找地外生命的迹象。(文:life_is_good@YDY)

Inside the Milky Way takes viewers on an astounding journey across 100,000 light-years to witness key moments in the history of the Milky Way. Using the latest science, NGC constructs a 3-D state-of-the-art CGI model of our galaxy. We'll peer into the heart of the Milky Way on the hunt for super-massive black holes, watch how stars are born and die, fly out and above the plane of our galaxy to understand its true shape and scour its dusty spiral arms for the possibility of life.

http://channel.nationalgeographic.com/staticfiles/NGC/StaticFiles/Images/Show/46xx/460x/4605_inside-the-milky-way-01_04700300.jpg

http://channel.nationalgeographic.com/staticfiles/NGC/StaticFiles/Images/Show/46xx/460x/4605_inside-the-milky-way-02_04700300.jpg

http://channel.nationalgeographic.com/staticfiles/NGC/StaticFiles/Images/Show/46xx/460x/4605_inside-the-milky-way-04_04700300.jpg

http://channel.nationalgeographic.com/staticfiles/NGC/StaticFiles/Images/Show/46xx/460x/4605_inside-the-milky-way-03_04700300.jpg

代码
Complete name : National.Geographic.Inside.the.Milky.Way.HDTV.XviD-FQM.avi
Format : AVI
Format/Info : Audio Video Interleave
File size : 700 MiB
Duration : 1h 31mn
Overall bit rate : 1 071 Kbps
Writing application : transcode-1.0.4

Video
ID : 0
Format : MPEG-4 Visual
Format profile : Advanced Simple@L5
Format settings, BVOP : Yes
Format settings, QPel : No
Format settings, GMC : No warppoints
Format settings, Matrix : Default (H.263)
Codec ID : XVID
Codec ID/Hint : XviD
Duration : 1h 31mn
Bit rate : 934 Kbps
Width : 624 pixels
Height : 352 pixels
Display aspect ratio : 16:9
Frame rate : 29.970 fps
Resolution : 8 bits
Colorimetry : 4:2:0
Scan type : Progressive
Bits/(Pixel*Frame) : 0.142
Stream size : 610 MiB (87%)
Writing library : XviD 1.2.1 (UTC 2008-12-04)

Audio
ID : 1
Format : MPEG Audio
Format version : Version 1
Format profile : Layer 3
Codec ID : 55
Codec ID/Hint : MP3
Duration : 1h 31mn
Bit rate mode : Variable
Bit rate : 128 Kbps
Channel(s) : 2 channels
Sampling rate : 48.0 KHz
Stream size : 80.8 MiB (12%)
Alignment : Aligned on interleaves
Interleave, duration : 24 ms (0.72 video frame)

正在读取……

这里是其它用户补充的资源(我也要补充):

暂无补充资源
正在加载,请稍等...

点击查看所有51网友评论

 

(?) [公告]留口水、评论相关规则 | [活动]每日签到 轻松领取电驴经验

    小贴士:
  1. 类似“顶”、“沙发”之类没有营养的文字,对勤劳贡献的楼主来说是令人沮丧的反馈信息。
  2. 提问之前请再仔细看一遍楼主的说明,或许是您遗漏了。
  3. 勿催片。请相信驴友们对分享是富有激情的,如果确有更新版本,您一定能搜索到。
  4. 请勿到处挖坑绊人、招贴广告。既占空间让人厌烦,又没人会搭理,于人于己都无利。
  5. 如果您发现自己的评论不见了,请参考以上4条。