v

您的位置:VeryCD动漫剧场动画

动漫资源事务区


《骨碎龙传说》(Legend of the BoneKnapper Dragon)[外挂简繁英字幕][720P]

  • 状态: 精华资源
  • 摘要:
    发行时间2010年
    语言英语
  • 时间: 2010/10/16 00:31:28 发布 | 2010/10/17 14:58:36 更新
  • 分类: 动漫  剧场动画 

life_is_good

精华资源: 6571

全部资源: 7301

相关: 分享到新浪微博   转播到腾讯微博   分享到开心网   分享到人人   分享到QQ空间   订阅本资源RSS更新   美味书签  subtitle
该内容尚未提供权利证明,无法提供下载。
中文名骨碎龙传说
英文名Legend of the BoneKnapper Dragon
别名骨龙的传说
资源格式720P
版本[外挂简繁英字幕]
发行时间2010年
地区美国
语言英语
简介

IPB Image

【首播时间】 2010年
【字幕制作】 外挂TLF简繁英字幕


【内容介绍】

本片是驯龙记蓝光碟中附带的短片,由原班人马配音,讲述了另一段冒险故事。小嗝嗝和朋友们与铁匠戈伯(Gobber)一同出发寻找传说中异常恐怖的骨碎龙。片长17 Mins。

【STAFF】

导演:迪恩·德布洛斯

【CAST】

杰伊·巴鲁切尔 Jay Baruchel ….Hiccup (voice)
杰拉德·巴特勒 Gerard Butler ….Stoick (voice)
亚美莉卡·费雷拉 America Ferrera ….Astrid (voice)
克雷格·费格森 Craig Ferguson ….Gobber (voice)
乔纳·希尔 Jonah Hill ….Snotlout (voice)
克里斯托夫·梅兹-普莱瑟 Christopher Mintz-Plasse ….Fishlegs (voice)
克里斯汀·韦格 Kristen Wiig ….Ruffnut (voice)
T·J·米勒 T.J. Miller ….Tuffnut (voice)
Kieron Elliott ….Viking (uncredited)
Robin Atkin Downes ….Ack
Philip McGrade ….Starkard (voice)
阿什丽·詹森 Ashley Jensen ….Phlegma the Fierce (voice)
Peter Aude ….Havblik den V?ldige (voice: Danish Version)
Rasmus Ellersgaard ….Fiskeben (voice: Danish Version)
罗伯特·汉森 Robert Hansen ….Hikke (voice: Danish Version)
Julian Eliot Kellerman ….Stenknold Thorskal (voice: Danish Version)
Sasia M?lgaard ….Benknold (voice: Danish Version)
Niclas Mortensen ….Snotfj?s (voice: Danish Version)
Niels Olsen ….Gobert (voice: Danish Version)
?zlem Saglanmark ….Astrid (voice: Danish Version)

http://i.6.cn/cvbnm/dc/37/5f/f40ea88ac47d0de98a13c0256a506c22.jpg

代码
Legend.of.the.BoneKnapper.Dragon.720p.BluRay.x264-EbP.mkv
     Format : Matroska
     File size : 669 MiB
     Duration : 16mn 33s
     Overall bit rate : 5 644 Kbps
     Encoded date : UTC 2010-10-10 15:32:41
     Writing application : mkvmerge v4.0.0 ('The Stars were mine') built on Jun  6 2010 16:18:42
     Writing library : libebml v1.0.0 + libmatroska v1.0.0
  Video #1
     ID : 1
     Format : AVC
     Format/Info : Advanced Video Codec
     Format profile : High@L4.1
     Format settings, CABAC : Yes
     Format settings, ReFrames : 9 frames
     Muxing mode : Container profile=Unknown@4.1
     Codec ID : V_MPEG4/ISO/AVC
     Duration : 16mn 32s
     Bit rate : 4 892 Kbps
     Nominal bit rate : 5 000 Kbps
     Width : 1 280 pixels
     Height : 720 pixels
     Display aspect ratio : 16:9
     Frame rate : 23.976 fps
     Resolution : 8 bits
     Colorimetry : 4:2:0
     Scan type : Progressive
     Bits/(Pixel*Frame) : 0.221
     Stream size : 579 MiB (87%)
     Title : Legend of the BoneKnapper Dragon
     Writing library : x264 core 105 r1732 2b04482
     Encoding settings : cabac=1 / ref=9 / deblock=1:-3:-3 / analyse=0x3:0x113 / me=tesa / subme=10 / psy=1 / psy_rd=0.90:0.10 / mixed_ref=1 / me_range=16 / chroma_me=1 / trellis=2 / 8x8dct=1 / cqm=0 / deadzone=21,11 / fast_pskip=0 / chroma_qp_offset=-3 / threads=12 / sliced_threads=0 / nr=0 / decimate=0 / interlaced=0 / constrained_intra=0 / bframes=8 / b_pyramid=2 / b_adapt=2 / b_bias=0 / direct=3 / weightb=1 / open_gop=0 / weightp=2 / keyint=250 / keyint_min=23 / scenecut=40 / intra_refresh=0 / rc=2pass / mbtree=0 / bitrate=5000 / ratetol=1.0 / qcomp=0.60 / qpmin=10 / qpmax=51 / qpstep=4 / cplxblur=20.0 / qblur=0.5 / ip_ratio=1.40 / pb_ratio=1.30 / aq=1:1.00
  Audio #2
     ID : 2
     Format : AC-3
     Format/Info : Audio Coding 3
     Codec ID : A_AC3
     Duration : 16mn 33s
     Bit rate mode : Constant
     Bit rate : 640 Kbps
     Channel(s) : 6 channels
     Channel positions : Front: L C R, Surround: L R, LFE
     Sampling rate : 48.0 KHz
     Stream size : 75.8 MiB (11%)
     Title : AC3 5.1 @ 640 kbps
  Text #3
     ID : 3
     Format : UTF-8
     Codec ID : S_TEXT/UTF8
     Codec ID/Info : UTF-8 Plain Text
  Text #4
     ID : 4
     Format : UTF-8
     Codec ID : S_TEXT/UTF8
     Codec ID/Info : UTF-8 Plain Text
     Language : French
  Text #5
     ID : 5
     Format : UTF-8
     Codec ID : S_TEXT/UTF8
     Codec ID/Info : UTF-8 Plain Text
     Language : Portuguese
  Text #6
     ID : 6
     Format : UTF-8
     Codec ID : S_TEXT/UTF8
     Codec ID/Info : UTF-8 Plain Text
     Language : Spanish

正在读取……

这里是其它用户补充的资源(我也要补充):

暂无补充资源
正在加载,请稍等...

点击查看所有44网友评论

 

(?) [公告]留口水、评论相关规则 | [活动]每日签到 轻松领取电驴经验

    小贴士:
  1. 类似“顶”、“沙发”之类没有营养的文字,对勤劳贡献的楼主来说是令人沮丧的反馈信息。
  2. 提问之前请再仔细看一遍楼主的说明,或许是您遗漏了。
  3. 勿催片。请相信驴友们对分享是富有激情的,如果确有更新版本,您一定能搜索到。
  4. 请勿到处挖坑绊人、招贴广告。既占空间让人厌烦,又没人会搭理,于人于己都无利。
  5. 如果您发现自己的评论不见了,请参考以上4条。