v

您的位置:VeryCD综艺纪录片

综艺资源事务区


《PBS:超越音速》(PBS: Faster Than Sound)[DVDRip]

  • 状态: 精华资源
  • 摘要:
    发行时间2001年
    地区美国
    语言英语
  • 时间: 2010/10/15 19:38:54 发布 | 2010/10/16 10:43:41 更新
  • 分类: 综艺  纪录片 

life_is_good

精华资源: 6571

全部资源: 7301

相关: 分享到新浪微博   转播到腾讯微博   分享到开心网   分享到人人   分享到QQ空间   订阅本资源RSS更新   美味书签  subtitle
该内容尚未提供权利证明,无法提供下载。
中文名PBS:超越音速
英文名PBS: Faster Than Sound
资源格式DVDRip
发行时间2001年
制作发行PBS
地区美国
语言英语
简介

IPB Image

【类型】: 纪录
【影片长度】: 56分钟
【集数】:全1集
【字幕】: 暂无
【服务器】: 随机
【分享时间】:全天

【内容介绍】:

本片讲述了人类追求超越音速的努力和历史。(文:life_is_good@ydy)

The quest to fly an airplane faster than sound is chronicled in this episode of Nova. The documentary begins in the final years of World War II, when fighter pilots began to notice that their airplanes began performing strangely as they began to attain great speeds during dives. The aircraft became unstable, the controls froze, and pilots who couldn't come out of the dive crashed helplessly to earth. Survivors of such terrifying ordeals speak on camera about what they experienced and reminisce about how flying at the speed of sound was thought to be an impossibility. Plans to develop faster planes are discussed, with looks at Allied and German designs during the war, and the eventual obstacles American designers faced in creating a plane to break what had become known as "the sound barrier" are shown with considerable detail. The plane built for the task, the Bell X1, is shown, and the pilot chosen to fly it on its monumental flight in 1947, Captain Chuck Yeager, recounts his experiences at the controls of an inherently dangerous piece of machinery. As one might expect from Nova, this documentary is intelligent and entertaining, and it also happens to be beautifully photographed. --Robert J. McNamara

IPB Image

代码
General
Complete name : D:Rip_TempNova - Faster than Sound.mkv
Format : Matroska
File size : 578 MiB
Duration : 56mn 18s
Overall bit rate : 1 434 Kbps
Movie name : Avidemux
Writing application : Lavf52.39.2
Writing library : Lavf52.39.2

Video
ID : 1
Format : AVC
Format/Info : Advanced Video Codec
Format profile : High@L3.1
Format settings, CABAC : Yes
Format settings, ReFrames : 3 frames
Muxing mode : Container profile=Unknown@3.1
Codec ID : V_MPEG4/ISO/AVC
Duration : 56mn 18s
Bit rate : 1 277 Kbps
Width : 704 pixels
Height : 544 pixels
Display aspect ratio : 1.294
Frame rate : 29.970 fps
Color space : YUV
Chroma subsampling : 4:2:0
Bit depth : 8 bits
Scan type : Progressive
Bits/(Pixel*Frame) : 0.111
Stream size : 515 MiB (89%)

Audio
ID : 2
Format : AC-3
Format/Info : Audio Coding 3
Mode extension : CM (complete main)
Codec ID : A_AC3
Duration : 56mn 18s
Bit rate mode : Constant
Bit rate : 128 Kbps
Channel(s) : 2 channels
Channel positions : Front: L R
Sampling rate : 48.0 KHz
Bit depth : 16 bits
Video delay : -33ms
Stream size : 51.6 MiB (9%)
Live Tracker Stats

正在读取……

这里是其它用户补充的资源(我也要补充):

暂无补充资源
正在加载,请稍等...

点击查看所有19网友评论

 

(?) [公告]留口水、评论相关规则 | [活动]每日签到 轻松领取电驴经验

    小贴士:
  1. 类似“顶”、“沙发”之类没有营养的文字,对勤劳贡献的楼主来说是令人沮丧的反馈信息。
  2. 提问之前请再仔细看一遍楼主的说明,或许是您遗漏了。
  3. 勿催片。请相信驴友们对分享是富有激情的,如果确有更新版本,您一定能搜索到。
  4. 请勿到处挖坑绊人、招贴广告。既占空间让人厌烦,又没人会搭理,于人于己都无利。
  5. 如果您发现自己的评论不见了,请参考以上4条。